Ссылка на приватное зеркало нашего сайта всего за 1$. Внимание количество ограничено!!!

2 сезон

iTunes

1 сезон

1

iTunes

iTunes

iTunes

1 сезон

RePack

30

ИГРА 18+

pack

ВАЖНО

!!Акция!!

Alien_RageХит недели

RePack

MK11
pack

Забери бонус

RePack

jed

!!Акция!!

Alien_Rage

RePack

fifa19

RePack

Assassins Creed: Odyssey

RePack

NEED FOR SPEED™ PAYBACK

4 сезон

9 сезон

Бесстыжие 9 сезон

Все сериалы

все сериалы на PB.wtf

RePack

FAR CRY 5
  

Дипломат / Сезон: 1 / Серии: 1-16 из 16 (Юрий Кузьменко) [2019, комедия, HDTVRip] pb.wtf

Дипломат через торрент pb.wtf

Размер: 9.85 GB | Добавлен: 1 год 1 мес. назад | Торрент скачан:113 раз
Скачать  

02-09-2019 20:47 Дипломат Скачать торрент  

Дипломат
Год выпуска: 2019
Страна: Россия
Жанр: комедия
Продолжительность: ~ 00:50:00 серия
Перевод: Не требуется
Субтитры: отсутствуют

Режиссер: Юрий Кузьменко



В ролях: Александр Лазарев (младший), Светлана Немоляева, Полина Кутепова, Яна Сексте, Александр Адабашьян, Алика Смехова, Анна Легчилова, Алла Криницына, Анна Старшенбаум, Екатерина Семёнова, Александр Андриенко, Юлия Полынская, Наталья Иванова-Фенкина, Серафима Красникова, Софья Евстигнеева, Павел Кузьмин, Игорь Ясулович, Виктория Романенко, Владимир Гуськов (II), Полина Лазарева, Вячеслав Чепурченко, Павел Табаков, Сергей Годин, Вилле Хаапасало, Александр Домогаров (младший)

Описание: Когда-то перед потомственным молодым дипломатом Лучниковым был распахнут весь мир, но жизнь внесла свои коррективы. Теперь весь свой дипломатический опыт Лучников применяет в многоходовых любовных комбинациях. Вконец изовравшись, Лучников решает начать жить с чистого листа. Но удастся ли ему это?

Качество: HDTVRip
Формат: AVI

Видео: XviD, ~ 1600 Кбит/с, 720х400, 25 кадр/с
Аудио: Русский (AC3, 2 ch, 192 Кбит/с)
скриншот  скриншот  скриншот  скриншот  

Общее
Полное имя : D:Diplomat.HDTVRip.GeneralFilm1.Diplomat.HDTVRip.GeneralFilm.avi
Формат : AVI
Формат/Информация : Audio Video Interleave
Размер файла : 616 Мбайт
Продолжительность : 48 м. 9 с.
Общий поток : 1790 Кбит/сек
Программа кодирования : VirtualDubMod 1.5.10.3 | www.virtualdub-fr.org || (build 2550/release)
Библиотека кодирования : VirtualDubMod build 2550/release

Видео
Идентификатор : 0
Формат : MPEG-4 Visual
Профиль формата : Advanced Simple@L5
Параметр BVOP формата : 1
Параметр QPel формата : Нет
Параметр GMC формата : Без точки перехода
Параметр матрицы формата : Выборочная
Идентификатор кодека : XVID
Идентификатор кодека/Подсказка : XviD
Продолжительность : 48 м. 9 с.
Битрейт : 1588 Кбит/сек
Ширина : 720 пикселей
Высота : 400 пикселей
Соотношение сторон : 16:9
Частота кадров : 25,000 кадров/сек
Цветовое пространство : YUV
Субдискретизация насыщенности : 4:2:0
Битовая глубина : 8 бит
Тип развёртки : Прогрессивная
Метод сжатия : С потерями
Бит/(Пиксели*Кадры) : 0.221
Размер потока : 547 Мбайт (89%)
Библиотека кодирования : XviD 1.2.1 (UTC 2008-12-04)

Аудио
Идентификатор : 1
Формат : AC-3
Формат/Информация : Audio Coding 3
Расширение режима : CM (complete main)
Параметр Endianness формата : Big
Идентификатор кодека : 2000
Продолжительность : 48 м. 9 с.
Вид битрейта : Постоянный
Битрейт : 192 Кбит/сек
Каналы : 2 канала
Расположение каналов : Front: L R
Частота : 48,0 КГц
Частота кадров : 31,250 кадров/сек (1536 spf)
Битовая глубина : 16 бит
Метод сжатия : С потерями
Размер потока : 66,1 Мбайт (11%)
Выравнивание : Разделение по промежуткам
Продолжительность промежутка : 40 мс. (1,00 видеокадр)
Время предзагрузки промежутка : 500 мс.

Раздача ведётся путём добавления новых серий, при каждом добавлении создаётся новый торрент. Чтобы начать докачку новой серии, пользователям необходимо сделать следующее:

- Остановить скачивание.
- Удалить старый торрент у себя из клиента (старые серии удалять не надо).
- Скачать новый торрент и запустить его у себя в клиенте вместо старого, при этом указать клиенту путь в старую папку куда и должно происходить скачивание новых серий.

Ваш клиент при этом должен произвести хеширование (проверку) старой папки (если не производит сам - помогите ему сделать это), и будет докачивать только те серии которых у вас ещё нет. Старые серии при этом не удаляются, а продолжают раздаваться!
Если вы уже удалили старые серии, то предотвратить повторную закачку старых серий можно, отжав галочку в соответствующих местах при запуске нового торрента. По возможности, желательно не удалять старые серии как можно дольше, чтобы релизер не столько продолжал раздавать старые серии, а смог сконцентрироваться на новых.
pb.wtf



Скачать Дипломат через торрент https://img16.lostpic.net/2019/09/02/8b5ea02265cc0755b1e8e41ef4166394.jpg Скачать фильм Дипломат через торрент бесплантно в хорошем качестве Описание: Когда-то перед потомственным молодым дипломатом Лучниковым был распахнут весь мир, но жизнь внесла свои коррективы. Теперь весь ... 10 10 9
Торрент: Зарегистрирован [2019-09-12 17:06] · скачан: 113 раз
Статус: √ проверено
Размер: 9.85 GB
Как cкачать? Как скачать Дипломат через торрент | qTorrent

% Раздел Тема Автор DL S | L
Наши сериалы [ 12.12 GB ] Дипломат / Сезон: 1 / Серии: 1-16 из 16 [2019 HDTVRip-AVC] bober100 Скачать
1 | 0
Наши сериалы [ 20.41 GB ] Дипломат / Сезон: 1 / Серии: 1-16 из 16 [2019 HDTVRip 720p] bober100 Скачать
1 | 0
Наши сериалы [ 40.67 GB ] Дипломат / Сезон: 1 / Серии: 1-16 из 16 [2019 HDTV 1080i] bober100 Скачать
1 | 0
Наши сериалы [ 10.1 GB ] Дипломат / Сезон: 1 / Серии: 1-16 из 16 [2019 SATRip] bober100 Скачать
1 | 0

28-11-2019 20:33  

Отключить всю рекламу на сайте

    Дорогой пользователь! Огромная просьба, поблагодарите релизера, оцените раздачу и оставьте свои комментарий, если Вы скачали Дипломат через торрент бесплатно! Внесите свою лепту в развитие PiratBit!
    Комментировать посты могут только пользователи прошедшие не сложную регистрацию
    Показать сообщения:    

    Дипломат через торрент
    Скачать бесплатно Дипломат
    Дипломат скачать торрент
    Дипломат смотреть онлайн
    Cкачать фильм Дипломат бесплатно
    Дипломат скачать торрент в хорошем качестве
    Дипломат смотреть онлайн бесплатно в хорошем качестве


    Вы не можете начинать темы
    Вы не можете отвечать на сообщения
    Вы не можете редактировать свои сообщения
    Вы не можете удалять свои сообщения
    Вы не можете голосовать в опросах
    Вы не можете прикреплять файлы к сообщениям
    Вы можете скачивать файлы