MEGA SALE -50% FORZA HORIZON 4 ULTIMATE+ВСЕ DLC+ОНЛАЙН всего за 599р. 299 руб. (супер цена). Внимание количество ограничено!!!

iTunes

1+1

iTunes

мы

iTunes

1

iTunes

Чернобыль

iTunes

Ральф против интернета

Лицензия

ПШазам

Лицензия

Игра престолов

Лицензия

30
pack

ВАЖНО

!!Акция!!

Alien_RageХит недели

RePack

Resident Evil 21

ИГРА 18+

pack

RePack

Metro:Exodus

!!Акция!!

Alien_Rage

RePack

fifa19

RePack

Assassins Creed: Odyssey

RePack

NEED FOR SPEED™ PAYBACK

3 сезон

9 сезон

Бесстыжие 9 сезон

Все сериалы

все сериалы на PB.wtf

RePack

FAR CRY 5
Ребята, катастрофически не хватает 7730р. для оплаты серверов за АВГУСТ (всвязи с блокировками трафик упал в 3 раза), 1-2р., выручайте.
  

Электрический всадник / The Electric Horseman (Сидни Поллак) [1979 г., Вестерн, мелодрама, комедия, WEB-DL 1080p от KORSAR][2xDVO] pb.wtf

Электрический всадник через торрент pb.wtf

Размер: 9.78 GB | Добавлен: 13 д. назад | Торрент скачан:0 раз
Скачать  

03-09-2019 16:33 Электрический всадник Скачать торрент  

Название: Электрический всадник / Электрический наездник
Оригинальное название: The Electric Horseman
Год выпуска: 1979
Выпущено: США, Ray Stark-Wildwood
Жанр: Вестерн, мелодрама, комедия
Режиссер: Сидни Поллак
В ролях: Роберт Редфорд, Джейн Фонда, Валери Перрайн, Уилли Нельсон, Джон Сэксон, Николас Костер, Аллан Арбас, Уилфорд Бримли, Уилл Хэр, Бэзил Хоффман

О фильме: Сонни Стил, в прошлом ковбой и победитель различных родео, сейчас выступает в Лас-Вегасе вместе со скакуном по кличке Восходящая звезда, рекламируя кашу для завтрака и часто прикладываясь к бутылке. Но однажды он узнаёт, что его лошади путём инъекции вводят седативные препараты, чтобы успокоить буйный нрав животного. В знак протеста Сонни выкрадывает скакуна и решает вместе с ним пересечь страну, чтобы выпустить в одном из каньонов, где пасутся целые стада диких лошадей. Репортёр Хэлли Мартин, узнав об этом и решив написать первой об истории бывшего ковбоя и его скакуна, догоняет Сонни и следует за ним в его необычном путешествии.

rating

Продолжительность: 02:00:26
Перевод: Профессиональный двухголосый
Субтитры: Английские
Навигация по главам: Есть

Качество: WEB-DL 1080p
Формат: MKV
Видео: MPEG-4 AVC, 10,8 Мбит/сек, 1920x816, 23,976 кадра/сек
Аудио #1: AC3, 2 ch, 192 Кбит/сек | Русский, профессиональный (двухголосый закадровый) СВ-Дубль, по заказу ГТРК "Культура"
Аудио #2: AC3, 2 ch, 192 Кбит/сек | Русский, профессиональный (двухголосый закадровый) R5
Аудио #3: EAC3, 2 ch, 224 Кбит/сек | Английский, оригинал

Релиз от:
Общее
Уникальный идентификатор : 238475336441257291842520282530269804772 (0xB368ADDC726C91CD81E490614F5AB8E4)
Полное имя : Электрический.всадник.1979.WEB-DL.1080p.mkv
Формат : Matroska
Версия формата : Version 2
Размер файла : 9,78 Гбайт
Продолжительность : 2 ч. 0 м.
Режим общего битрейта : Переменный
Общий поток : 11,6 Мбит/сек
Дата кодирования : UTC 2018-05-02 14:05:56
Программа кодирования : mkvmerge v5.8.0 ('No Sleep / Pillow') built on Sep 2 2012 15:37:04
Библиотека кодирования : libebml v1.2.3 + libmatroska v1.3.0

Видео
Идентификатор : 1
Формат : AVC
Формат/Информация : Advanced Video Codec
Профиль формата : High@L4
Настройки формата : CABAC / 4 Ref Frames
Параметр CABAC формата : Да
Параметр RefFrames формата : 4 кадра
Идентификатор кодека : V_MPEG4/ISO/AVC
Продолжительность : 2 ч. 0 м.
Вид битрейта : Переменный
Битрейт : 10,8 Мбит/сек
Максимальный битрейт : 15,0 Мбит/сек
Ширина : 1920 пикселей
Высота : 816 пикселей
Соотношение сторон : 2,35:1
Режим частоты кадров : Постоянный
Частота кадров : 23,976 (24000/1001) кадра/сек
Цветовое пространство : YUV
Субдискретизация насыщенности : 4:2:0
Битовая глубина : 8 бит
Тип развёртки : Прогрессивная
Бит/(Пиксели*Кадры) : 0.287
Размер потока : 9,07 Гбайт (93%)
Язык : English
Default : Да
Forced : Нет
Цветовой диапазон : Limited
Основные цвета : BT.709
Характеристики трансфера : BT.709
Коэффициенты матрицы : BT.709

Аудио #1
Идентификатор : 2
Формат : AC-3
Формат/Информация : Audio Coding 3
Идентификатор кодека : A_AC3
Продолжительность : 2 ч. 0 м.
Вид битрейта : Постоянный
Битрейт : 192 Кбит/сек
Каналы : 2 канала
Расположение каналов : Front: L R
Частота : 48,0 КГц
Частота кадров : 31,250 кадров/сек (1536 SPF)
Битовая глубина : 16 бит
Метод сжатия : С потерями
Размер потока : 165 Мбайт (2%)
Заголовок : DVO | ГТРК "Культура"
Язык : Russian
По умолчанию : Да
Принудительно : Нет

Аудио #2
Идентификатор : 3
Формат : AC-3
Формат/Информация : Audio Coding 3
Идентификатор кодека : A_AC3
Продолжительность : 2 ч. 0 м.
Вид битрейта : Постоянный
Битрейт : 192 Кбит/сек
Каналы : 2 канала
Расположение каналов : Front: L R
Частота : 48,0 КГц
Частота кадров : 31,250 кадров/сек (1536 SPF)
Битовая глубина : 16 бит
Метод сжатия : С потерями
Размер потока : 165 Мбайт (2%)
Заголовок : DVO | R5
Язык : Russian
По умолчанию : Нет
Принудительно : Нет

Аудио #3
Идентификатор : 4
Формат : E-AC-3
Формат/Информация : Enhanced Audio Coding 3
Идентификатор кодека : A_EAC3
Продолжительность : 2 ч. 0 м.
Вид битрейта : Постоянный
Битрейт : 224 Кбит/сек
Каналы : 2 канала
Расположение каналов : Front: L R
Частота : 48,0 КГц
Частота кадров : 187,500 кадров/сек (256 SPF)
Метод сжатия : С потерями
Размер потока : 193 Мбайт (2%)
Заголовок : Original
Язык : English
По умолчанию : Нет
Принудительно : Нет

Текст
Идентификатор : 5
Формат : UTF-8
Идентификатор кодека : S_TEXT/UTF8
Идентификатор кодека/Информация : UTF-8 Plain Text
Язык : English
По умолчанию : Нет
Принудительно : Нет

Меню
00:00:00.000 : en:Chapter 01
00:05:43.935 : en:Chapter 02
00:12:32.843 : en:Chapter 03
00:19:25.756 : en:Chapter 04
00:27:56.266 : en:Chapter 05
00:36:03.753 : en:Chapter 06
00:46:17.366 : en:Chapter 07
00:53:01.770 : en:Chapter 08
01:02:58.866 : en:Chapter 09
01:11:22.870 : en:Chapter 10
01:19:40.867 : en:Chapter 11
01:27:24.831 : en:Chapter 12
01:35:49.835 : en:Chapter 13
01:44:45.370 : en:Chapter 14
01:53:24.389 : en:Chapter 15
01:58:36.701 : en:Chapter 16
02:00:25.810 : en:Chapter 17
• Исходник видео WEB-DL Amazon.
pb.wtf



Скачать Электрический всадник через торрент http://d.radikal.ru/d32/1805/10/dead10fac0e7.png Скачать фильм Электрический всадник через торрент бесплантно в хорошем качестве О фильме: Сонни Стил, в прошлом ковбой и победитель различных родео, сейчас выступает в Лас-Вегасе вместе со скакуном по кличке Восходящая ... 10 10 1
Торрент: Зарегистрирован [2019-09-03 16:33] · скачан: 0 раз
Статус: √ проверено
Размер: 9.78 GB
Как cкачать? Как скачать Электрический всадник через торрент | qTorrent


>> Регистрируемся здесь <<






Отзывы и комментарии о схеме читаем и пишем здесь: ---> Отзывы и комментарии о схеме

Новые благодарочки в телеграм довольных пользователей:
скриншот   скриншот   скриншот   скриншот   скриншот

03-09-2019 16:37 Электрический всадник Скачать торрент  

Топик был перенесен из форума Фильмы (WEB-DL 720p, 1080p) в форум Классика зарубежного кино


bober100pb.wtf



    Дорогой пользователь! Огромная просьба, поблагодарите релизера, оцените раздачу и оставьте свои комментарий, если Вы скачали Электрический всадник через торрент бесплатно! Внесите свою лепту в развитие PiratBit!
    Комментировать посты могут только пользователи прошедшие не сложную регистрацию
    Показать сообщения:    

    Электрический всадник через торрент
    Скачать бесплатно Электрический всадник
    Электрический всадник скачать торрент
    Электрический всадник смотреть онлайн
    Cкачать фильм Электрический всадник бесплатно
    Электрический всадник скачать торрент в хорошем качестве
    Электрический всадник смотреть онлайн бесплатно в хорошем качестве


    Вы не можете начинать темы
    Вы не можете отвечать на сообщения
    Вы не можете редактировать свои сообщения
    Вы не можете удалять свои сообщения
    Вы не можете голосовать в опросах
    Вы не можете прикреплять файлы к сообщениям
    Вы можете скачивать файлы