новый адрес
Ссылка на приватное зеркало всего за 1$. Внимание количество ограничено!!!

iTunes

1+1

iTunes

мы

WEB-DL

1

iTunes

Чернобыль

iTunes

Ральф против интернета

Лицензия

ПШазам

Лицензия

Оно 2

Лицензия

30
pack

Вам бонус

ВАЖНО

!!Акция!!

Alien_RageХит недели

RePack

Resident Evil 21

ИГРА 18+

pack

RePack

jed

!!Акция!!

Alien_Rage

RePack

fifa19

RePack

Assassins Creed: Odyssey

RePack

NEED FOR SPEED™ PAYBACK

3 сезон

9 сезон

Бесстыжие 9 сезон

Все сериалы

все сериалы на PB.wtf

RePack

FAR CRY 5
Ребята, катастрофически не хватает 1900р. для оплаты серверов за Октябрь (всвязи с блокировками трафик упал в 3 раза), 1-2р., выручайте.
  

Мертвые не умирают / The Dead Don't Die (Джим Джармуш) [2019, ужасы, фэнтези, комедия, BDRip] DUB [iTunes] pb.wtf

Мертвые не умирают через торрент pb.wtf

Раздают: 1 [ 0 KB/s ]
Размер: 1.45 GB | Добавлен: 3 мес. 5 д. назад | Торрент скачан:382 раза
Скачать  

04-09-2019 19:51 Мертвые не умирают Скачать торрент  

Мертвые не умирают / The Dead Don't Die
Год выпуска: 2019
Страна: США, Швеция
Жанр: ужасы, фэнтези, комедия
Продолжительность: 01:44:28
Перевод: Дублированный | iTunes
Субтитры: русские (форс. вшитые)

Режиссер: Джим Джармуш

rating

В ролях: Адам Драйвер, Билл Мюррей, Хлоя Севиньи, Тильда Суинтон, Стив Бушеми, Селена Гомес, RZA, Алисса Мария Апп, Карл Арчилези, Моника Эйрс

Описание: В маленьком американском городке что-то пошло не так. День наступает ночью, домашние животные убегают в лес, по радио играет одна и та же песня. Ученые, как обычно, не могут ничего толком объяснить. Хотя даже обывателю давно понятно, что это - предвестники зомби-апокалипсиса. И жители города как никогда готовы побороться за свою плоть!

Качество: BDRip
Формат: AVI

Видео: Xvid 73, 704x400, ~1595 kbps, 23,976 fps
Аудио: русский, AC3, 5.1 ch, 48 kHz, 384 kbps | iTunes
скриншот  скриншот  скриншот  скриншот  скриншот  

Общее
Полное имя : G:Torrent2TheDeadDontDieBDRip.avi
Формат : AVI
Формат/Информация : Audio Video Interleave
Профиль формата : OpenDML
Размер файла : 1,45 Гбайт
Продолжительность : 1 ч. 44 м.
Общий поток : 1991 Кбит/сек
Программа кодирования : XviD4PSP 6.0 / 53.6.0

Видео
Идентификатор : 0
Формат : MPEG-4 Visual
Профиль формата : Advanced Simple@L5
Настройки формата : BVOP1 / Custom Matrix
Параметр BVOP формата : 1
Параметр QPel формата : Нет
Параметр GMC формата : Без точки перехода
Параметр матрицы формата : Выборочная
Идентификатор кодека : XVID
Идентификатор кодека/Подсказка : XviD
Продолжительность : 1 ч. 44 м.
Битрейт : 1595 Кбит/сек
Ширина : 704 пикселя
Высота : 400 пикселей
Соотношение сторон : 16:9
Частота кадров : 23,976 (23976/1000) кадра/сек
Цветовое пространство : YUV
Субдискретизация насыщенности : 4:2:0
Битовая глубина : 8 бит
Тип развёртки : Прогрессивная
Метод сжатия : С потерями
Бит/(Пиксели*Кадры) : 0.236
Размер потока : 1,16 Гбайт (80%)
Библиотека кодирования : XviD 73

Аудио
Идентификатор : 1
Формат : AC-3
Формат/Информация : Audio Coding 3
Параметр Endianness формата : Big
Идентификатор кодека : 2000
Продолжительность : 1 ч. 44 м.
Вид битрейта : Постоянный
Битрейт : 384 Кбит/сек
Каналы : 6 каналов
Расположение каналов : Front: L C R, Side: L R, LFE
Частота : 48,0 КГц
Частота кадров : 31,250 кадров/сек (1536 SPF)
Битовая глубина : 16 бит
Метод сжатия : С потерями
Размер потока : 287 Мбайт (19%)
Выравнивание : Соединение по промежуткам
Продолжительность промежутка : 32 мс. (0,77 видеокадр)

pb.wtf



Скачать Мертвые не умирают через торрент http://lostpix.com/thumbs/2019-09/04/jdlh6km8nlitl469wosouqbnc.png Скачать фильм Мертвые не умирают через торрент бесплантно в хорошем качестве Описание: В маленьком американском городке что-то пошло не так. День наступает ночью, домашние животные убегают в лес, по радио играет одна ... 9.7 10 14
Торрент: Зарегистрирован [2019-09-04 19:51] · скачан: 382 раз
Статус: √ проверено
Размер: 1.45 GB
Как cкачать? Как скачать Мертвые не умирают через торрент | qTorrent

28-11-2019 20:33  

Отключить всю рекламу на сайте

05-09-2019 01:07 Мертвые не умирают Скачать торрент  

Фильм - лютейшее "цензура"
Как с таким кастом, можно было снять подобное.

Я слишком стар для этого дерьма(с)Денни Гловерpb.wtf



07-09-2019 10:35 Мертвые не умирают Скачать торрент  

Досмотрел еле-еле, есть хорошие актеры, а фильм "БЕ". не понятна оценкаpb.wtf



    Дорогой пользователь! Огромная просьба, поблагодарите релизера, оцените раздачу и оставьте свои комментарий, если Вы скачали Мертвые не умирают через торрент бесплатно! Внесите свою лепту в развитие PiratBit!
    Комментировать посты могут только пользователи прошедшие не сложную регистрацию
    Показать сообщения:    

    Мертвые не умирают через торрент
    Скачать бесплатно Мертвые не умирают
    Мертвые не умирают скачать торрент
    Мертвые не умирают смотреть онлайн
    Cкачать фильм Мертвые не умирают бесплатно
    Мертвые не умирают скачать торрент в хорошем качестве
    Мертвые не умирают смотреть онлайн бесплатно в хорошем качестве


    Вы не можете начинать темы
    Вы не можете отвечать на сообщения
    Вы не можете редактировать свои сообщения
    Вы не можете удалять свои сообщения
    Вы не можете голосовать в опросах
    Вы не можете прикреплять файлы к сообщениям
    Вы можете скачивать файлы