Всегда рабочее зеркало без VPN и Proxy просто перед .vidak.icu напиши любое слово или цифру, Пример http://jyda.vidak.icu

MVO

MVO

1 сезон

1

1 сезон

iTunes

1 сезон

13

1 сезон

Deluxe

pack

Рекомендуем

Repack

30

ВАЖНО

RePack

MK11

RePack

jed

RePack

fifa19

RePack

RDR2

RePack

NEED FOR SPEED™ PAYBACK

Кинопоиск HD

6 сезон

 Острые козырьки 6 сезон

Все сериалы

все сериалы на PB.wtf

RePack

FAR CRY 5
  
Magnet ссылка

Люди Икс: Тёмный Феникс / Dark Phoenix (Саймон Кинберг) [2019, фантастика, боевик, приключения, UHD WEB-DL 2160p] [SDR] DUB (rus, ukr) [Лицензия] pb.wtf

Люди Икс: Тёмный Феникс через торрент pb.wtf

Размер: 21.16 GB | Добавлен: 2 года 11 мес. назад | Торрент скачан:121 раз
Смотреть онлайн Люди Икс: Тёмный Феникс | Скачать    Ребята, помогите собрать деньги на оплату серверов!!!

05-09-2019 00:46 Люди Икс: Тёмный Феникс Скачать торрент  

Люди Икс: Тёмный Феникс / Dark Phoenix

Год выпуска: 2019
Страна: США
Жанр: фантастика, боевик, приключения
Продолжительность: 01:53:56
Перевод: Дублированный | Лицензия
Субтитры: (forced, full), Украинские (full), Английские (forced, full, SDH)

Режиссер: Саймон Кинберг

rating

В ролях:

Джеймс МакЭвой (Professor Charles Xavier), Майкл Фассбендер (Erik Lehnsherr / Magneto), Дженнифер Лоуренс (Raven / Mystique), Николас Холт (Hank McCoy / Beast), Софи Тёрнер (Jean Grey / Phoenix), Тай Шеридан (Scott Summers / Cyclops), Александра Шипп (Ororo Munroe / Storm), Эван Питерс (Peter Maximoff / Quicksilver), Коди Смит-Макфи (Kurt Wagner / Nightcrawler), Джессика Честейн (Vuk), Скотт Шеперд (John Grey), Ато Эссонда (Jones)
Описание: История Джин Грей, которая разворачивается в тот момент, когда героиня превращается в культового Тёмного Феникса. Во время опасной для жизни спасательной миссии в космосе девушка оказывается поражена таинственной космической силой, которая превращает её в одного из самых могущественных мутантов. В борьбе с этой всё более изменчивой мощью и со своими собственными демонами Джин выходит из-под контроля: раскалывает семью Людей Икс и угрожает уничтожить всю нашу планету.

Качество: UHD WEB-DL 2160p
Формат: MKV

Видео: HEVC SDR, 24.3 Mбит/с, 3840x2160, 23.976 кадр/с, 10 Бит
Аудио#1: 48 kHz, DTS, 5.1, 768 Kbps | Дублированный | RUS |
Аудио#2: 48 kHz, AC3, 5.1, 448 Kbps | Дублированный | RUS |
Аудио#3: 48 kHz, AC3, 5.1, 448 Kbps | Дублированный | UKR |
Аудио#4: 48 kHz, E-AC3, 5.1, 640 Kbps | Оригинал | ENG |
скриншот  скриншот  скриншот  скриншот  скриншот  

Общее
Уникальный идентификатор : 172994537863961903095128214074846396685 (0x8225893BCD6FF260A69844F4AFE8C10D)
Полное имя : D:\Передел\Dark.Phoenix.2019.WEB-DL.2160p.x265.10bit.SDR.Master5.mkv
Формат : Matroska
Версия формата : Version 4
Размер файла : 21,2 Гбайт
Продолжительность : 1 ч. 53 м.
Общий поток : 26,6 Мбит/сек
Название фильма : Dark.Phoenix.2019.WEB-DL.2160p.x265.10bit.SDR.Master5
Дата кодирования : UTC 2019-09-04 21:11:07
Программа кодирования : mkvmerge v7.9.0 ('Birds') 64bit
Библиотека кодирования : libebml v1.3.1 + libmatroska v1.4.2

Видео
Идентификатор : 1
Формат : HEVC
Формат/Информация : High Efficiency Video Coding
Профиль формата : Main [email protected]@High
Идентификатор кодека : V_MPEGH/ISO/HEVC
Продолжительность : 1 ч. 53 м.
Битрейт : 24,3 Мбит/сек
Ширина : 3840 пикселей
Высота : 1608 пикселей
Высота оригинала : 2160 пикселей
Соотношение сторон : 16:9
Режим частоты кадров : Постоянный
Частота кадров : 23,976 (24000/1001) кадра/сек
Цветовое пространство : YUV
Субдискретизация насыщенности : 4:2:0 (Type 2)
Битовая глубина : 10 бит
Бит/(Пиксели*Кадры) : 0.164
Размер потока : 19,3 Гбайт (91%)
Заголовок : Dark.Phoenix.2019.WEB-DL.2160p.x265.10bit.SDR.Master5
Default : Да
Forced : Нет
Цветовой диапазон : Limited
Основные цвета : BT.709
Характеристики трансфера : BT.709
Коэффициенты матрицы : BT.709

Аудио #1
Идентификатор : 2
Формат : DTS
Формат/Информация : Digital Theater Systems
Идентификатор кодека : A_DTS
Продолжительность : 1 ч. 53 м.
Вид битрейта : Постоянный
Битрейт : 768 Кбит/сек
Каналы : 6 каналов
Channel layout : C L R Ls Rs LFE
Частота : 48,0 КГц
Частота кадров : 93,750 кадра/сек (512 SPF)
Битовая глубина : 24 бит
Метод сжатия : С потерями
Размер потока : 626 Мбайт (3%)
Заголовок : Dub License
Язык : Russian
Default : Да
Forced : Да

Аудио #2
Идентификатор : 3
Формат : AC-3
Формат/Информация : Audio Coding 3
Коммерческое название : Dolby Digital
Идентификатор кодека : A_AC3
Продолжительность : 1 ч. 53 м.
Вид битрейта : Постоянный
Битрейт : 448 Кбит/сек
Каналы : 6 каналов
Channel layout : L R C LFE Ls Rs
Частота : 48,0 КГц
Частота кадров : 31,250 кадров/сек (1536 SPF)
Битовая глубина : 16 бит
Метод сжатия : С потерями
Размер потока : 365 Мбайт (2%)
Заголовок : Dub License
Язык : Russian
ServiceKind/String : Complete Main
Default : Нет
Forced : Нет

Аудио #3
Идентификатор : 4
Формат : AC-3
Формат/Информация : Audio Coding 3
Коммерческое название : Dolby Digital
Идентификатор кодека : A_AC3
Продолжительность : 1 ч. 53 м.
Вид битрейта : Постоянный
Битрейт : 448 Кбит/сек
Каналы : 6 каналов
Channel layout : L R C LFE Ls Rs
Частота : 48,0 КГц
Частота кадров : 31,250 кадров/сек (1536 SPF)
Битовая глубина : 16 бит
Метод сжатия : С потерями
Размер потока : 365 Мбайт (2%)
Заголовок : Dub License
Язык : Ukrainian
ServiceKind/String : Complete Main
Default : Нет
Forced : Нет

Аудио #4
Идентификатор : 5
Формат : E-AC-3
Формат/Информация : Enhanced AC-3
Коммерческое название : Dolby Digital Plus
Идентификатор кодека : A_EAC3
Продолжительность : 1 ч. 53 м.
Вид битрейта : Постоянный
Битрейт : 640 Кбит/сек
Каналы : 6 каналов
Channel layout : L R C LFE Ls Rs
Частота : 48,0 КГц
Частота кадров : 31,250 кадров/сек (1536 SPF)
Метод сжатия : С потерями
Размер потока : 521 Мбайт (2%)
Заголовок : Original
Язык : English
ServiceKind/String : Complete Main
Default : Нет
Forced : Нет

Текст #1
Идентификатор : 6
Формат : UTF-8
Идентификатор кодека : S_TEXT/UTF8
Идентификатор кодека/Информация : UTF-8 Plain Text
Продолжительность : 1 ч. 34 м.
Битрейт : 0 бит/сек
ElementCount : 9
Размер потока : 371 байт (0%)
Заголовок : Forced
Язык : Russian
Default : Да
Forced : Да

Текст #2
Идентификатор : 7
Формат : UTF-8
Идентификатор кодека : S_TEXT/UTF8
Идентификатор кодека/Информация : UTF-8 Plain Text
Продолжительность : 1 ч. 52 м.
Битрейт : 57 бит/сек
ElementCount : 1100
Размер потока : 47,5 Кбайт (0%)
Заголовок : Full
Язык : Russian
Default : Нет
Forced : Нет

Текст #3
Идентификатор : 8
Формат : UTF-8
Идентификатор кодека : S_TEXT/UTF8
Идентификатор кодека/Информация : UTF-8 Plain Text
Продолжительность : 1 ч. 52 м.
Битрейт : 0 бит/сек
ElementCount : 10
Размер потока : 363 байт (0%)
Заголовок : Full
Язык : Ukrainian
Default : Нет
Forced : Нет

Текст #4
Идентификатор : 9
Формат : UTF-8
Идентификатор кодека : S_TEXT/UTF8
Идентификатор кодека/Информация : UTF-8 Plain Text
Продолжительность : 31 м. 20 с.
Битрейт : 0 бит/сек
ElementCount : 4
Размер потока : 170 байт (0%)
Заголовок : Forced
Язык : English
Default : Нет
Forced : Нет

Текст #5
Идентификатор : 10
Формат : UTF-8
Идентификатор кодека : S_TEXT/UTF8
Идентификатор кодека/Информация : UTF-8 Plain Text
Продолжительность : 1 ч. 52 м.
Битрейт : 36 бит/сек
ElementCount : 1125
Размер потока : 29,9 Кбайт (0%)
Заголовок : Full
Язык : English
Default : Нет
Forced : Нет

Текст #6
Идентификатор : 11
Формат : UTF-8
Идентификатор кодека : S_TEXT/UTF8
Идентификатор кодека/Информация : UTF-8 Plain Text
Продолжительность : 1 ч. 53 м.
Битрейт : 43 бит/сек
ElementCount : 1417
Размер потока : 36,4 Кбайт (0%)
Заголовок : English (SDH)
Язык : English
Default : Нет
Forced : Нет

Меню
00:00:01.000 : en:Chapter 01
00:03:27.000 : en:Chapter 02
00:07:33.000 : en:Chapter 03
00:11:41.000 : en:Chapter 04
00:15:43.000 : en:Chapter 05
00:18:36.000 : en:Chapter 06
00:25:23.000 : en:Chapter 07
00:31:39.000 : en:Chapter 08
00:34:18.000 : en:Chapter 09
00:40:06.000 : en:Chapter 10
00:44:35.000 : en:Chapter 11
00:49:06.000 : en:Chapter 12
00:55:37.000 : en:Chapter 13
00:58:56.000 : en:Chapter 14
01:02:55.000 : en:Chapter 15
01:10:39.000 : en:Chapter 16
01:13:41.000 : en:Chapter 17
01:19:32.000 : en:Chapter 18
01:22:34.000 : en:Chapter 19
01:25:48.000 : en:Chapter 20
01:30:37.000 : en:Chapter 21
01:32:47.000 : en:Chapter 22
01:37:58.000 : en:Chapter 23
01:45:00.000 : en:Chapter 24

pb.wtf



Скачать Люди Икс: Тёмный Феникс через торрент https://b.radikal.ru/b02/1909/9e/9bd95aba5210.jpg Скачать, смотреть онлайн Люди Икс: Тёмный Феникс бесплантно в хорошем качестве Описание: История Джин Грей, которая разворачивается в тот момент, когда героиня превращается в культового Тёмного Феникса. Во время ... 8.9 10 8
Торрент: Зарегистрирован [2019-09-05 00:46] · скачан: 121 раз
Статус: √ проверено
Размер: 21.16 GB
Как cкачать? Как скачать Люди Икс: Тёмный Феникс через торрент | UTorrent

% Раздел Тема Автор DL S | L
Фильмы (HD 720p, 1080p) (48-60 fps) [ 3.61 GB ] Люди Икс: Тёмный Феникс / Dark Phoenix [2019 BDRip 720p / 60 FPS BD CEE] от R.G. HD-Films slaventi-69 Скачать
2 | 0
Фильмы [HD 720p, 1080p] (Хороший звук DUB, MVO) [ 4.31 GB ] Люди Икс: Тёмный Феникс / Dark Phoenix [2019 BDRip 720p] - ExKinoRay Enigma2010 Скачать
4 | 0
Фильмы 2019-2020 [DVDrip, WEB-DLRip, HDrip] (DUB, MVO) [ 1.46 GB ] Люди Икс: Тёмный Феникс / Dark Phoenix [2019 BDRip] - [] Twi7ter Скачать
3 | 0
Фильмы [HD 720p, 1080p] (Хороший звук DUB, MVO) [ 13.16 GB ] Люди Икс: Тёмный Феникс / Dark Phoenix [2019 BDRip 1080p] DUB [] bober100 Скачать
2 | 0
Фильмы 2019-2020 [DVDrip, WEB-DLRip, HDrip] (DUB, MVO) [ 2.18 GB ] Люди Икс: Тёмный Феникс / Dark Phoenix [2019 BDRip] - [] Twi7ter Скачать
3 | 0
Фильмы 2019-2020 [DVDrip, WEB-DLRip, HDrip] (DUB, MVO) [ 746 MB ] Люди Икс: Тёмный Феникс / Dark Phoenix [2019 HDRip] DUB [] surikmas Скачать
1 | 0
Фильмы 2019-2020 [DVDrip, WEB-DLRip, HDrip] (DUB, MVO) [ 754 MB ] Люди Икс: Тёмный Феникс / Dark Phoenix [2019 BDRip] DUB [] bober100 Скачать
1 | 0

28-11-2019 20:33  

Отключить вcю реклaмy на сайте

07-09-2019 11:06 Люди Икс: Тёмный Феникс Скачать торрент  

Почему не iTunes?pb.wtf



    Дорогой пользователь! Огромная просьба, поблагодарите релизера, оцените раздачу и оставьте свои комментарий, если Вы скачали Люди Икс: Тёмный Феникс через торрент бесплатно!
    Комментировать посты могут только пользователи прошедшие не сложную регистрацию
    Показать сообщения:    

    Люди Икс: Тёмный Феникс через торрент
    Скачать бесплатно Люди Икс: Тёмный Феникс
    Люди Икс: Тёмный Феникс скачать торрент
    Люди Икс: Тёмный Феникс смотреть онлайн
    Cкачать фильм Люди Икс: Тёмный Феникс бесплатно
    Люди Икс: Тёмный Феникс скачать торрент в хорошем качестве
    Люди Икс: Тёмный Феникс смотреть онлайн бесплатно в хорошем качестве


    Вы не можете начинать темы
    Вы не можете отвечать на сообщения
    Вы не можете редактировать свои сообщения
    Вы не можете удалять свои сообщения
    Вы не можете голосовать в опросах
    Вы не можете прикреплять файлы к сообщениям
    Вы можете скачивать файлы