2 сезон

iTunes

MVO

1

2 сезон

iTunes

iTunes

1 сезон

RePack

30

Новинка

ВАЖНО

ИГРА 18+

pack

RePack

MK11
pack

Легкие деньги

RePack

jed

RePack

fifa19

RePack

RDR2

RePack

NEED FOR SPEED™ PAYBACK

4 сезон

9 сезон

Бесстыжие 9 сезон

Все сериалы

все сериалы на PB.wtf

RePack

FAR CRY 5

Anonymous, доброе утро, мы не успеваем собрать деньги на оплату серверов за декабрь и январь, помогите нам пожалуйста в это трудное время. В качестве благодарности мы отключим Вам всю рекламу на сайте (укажите свой ник в строку Ваше имя)!

×
  
Magnet ссылка

Ладья / The Rook / Сезон: 1 / Серии: 1-8 из 8 (Чина Му-Ен, Кари Скогланд, Суну Гонера) [2019, фэнтези, драма, триллер, WEB-DL 1080p] MVO [Jaskier] pb.wtf

Ладья через торрент pb.wtf

Размер: 25.52 GB | Добавлен: 1 год 4 мес. назад | Торрент скачан:3 раза
Скачать  

05-09-2019 01:14 Ладья Скачать торрент  

Ладья / The Rook Год выпуска: 2019
Страна: США
Жанр: фэнтези, драма, триллер
Продолжительность: ~ 00:51:00
Перевод: Профессиональный (многоголосый закадровый) | Jaskier
Субтитры: отсутствуют

Режиссёр: Чина Му-Ен, Кари Скогланд, Суну Гонера

В ролях: Эмма Гринвелл, Джон Флетчер, Адриан Лестер, Рут Маделей, Оливия Манн, Ронан Рафтери, Джоэли Ричардсон, Джошуа Сквайр, Катрин Стэдмен, Тоби Кордес

Описание: Сверхспособности — это не только геройство в духе «Людей Икс», но и проблемы со спецслужбами. Так, по крайней мере, обстоят дела у главной героини сериала от Starz «Ладья» Мифанви Томас. В комплекте с суперсилой ей досталась амнезия: однажды проснувшись в парке среди трупов, она вынуждена самостоятельно выяснить, кто запустил цепь таинственных убийств. И это не так-то просто, когда находишься под прицелом секретной организации. Основанная на успешном романе Дэниела О’Мэлли, «Ладья» — лихо задуманный сплав триллера, драмы и фэнтези, пытающийся сказать что-то новое в жанре историй о супергероях.

rating


Качество: WEB-DL 1080p
Формат: MKV

Видео: 1920x1080 (16:9) | X264 | ~7700 kbps | 23.976 fps
Аудио 1: AC3, 48,0 КГц, 6 ch, 384 kbps - [RUS]
Аудио 2: AC3, 48,0 КГц, 6 ch, 384 kbps - [ENG]
Переведено и озвучено: студией Jaskier
Общее
Полное имя                               : G:\Загрузки\The Rook
Формат                                   : Matroska
Версия формата                           : Version 2
Размер файла                             : 3,01 Гбайт
Продолжительность                        : 50 м. 46 с.
Режим общего битрейта                    : Постоянный
Общий поток                              : 8495 Кбит/сек
Дата кодирования                         : UTC 2019-09-04 20:34:14
Программа кодирования                    : mkvmerge v7.8.0 ('River Man') 32bit built on Apr  3 2015 12:11:22
Библиотека кодирования                   : libebml v1.3.1 + libmatroska v1.4.2

Видео
Идентификатор                            : 1
Формат                                   : AVC
Формат/Информация                        : Advanced Video Codec
Профиль формата                          : High@L4
Настройки формата                        : CABAC / 4 Ref Frames
Параметр CABAC формата                   : Да
Параметр RefFrames формата               : 4 кадра
Идентификатор кодека                     : V_MPEG4/ISO/AVC
Продолжительность                        : 50 м. 46 с.
Вид битрейта                             : Постоянный
Битрейт                                  : 7558 Кбит/сек
Номинальный битрейт                      : 10000 Кбит/сек
Ширина                                   : 1920 пикселей
Высота                                   : 1080 пикселей
Соотношение сторон                       : 16:9
Режим частоты кадров                     : Постоянный
Частота кадров                           : 23,976 (24000/1001) кадра/сек
Цветовое пространство                    : YUV
Субдискретизация насыщенности            : 4:2:0
Битовая глубина                          : 8 бит
Тип развёртки                            : Прогрессивная
Бит/(Пиксели*Кадры)                      : 0.152
Размер потока                            : 2,68 Гбайт (89%)
Язык                                     : English
Default                                  : Да
Forced                                   : Нет
Цветовой диапазон                        : Limited
Основные цвета                           : BT.709
Характеристики трансфера                 : BT.709
Коэффициенты матрицы                     : BT.709

Аудио #1
Идентификатор                            : 2
Формат                                   : AC-3
Формат/Информация                        : Audio Coding 3
Коммерческое название                    : Dolby Digital
Идентификатор кодека                     : A_AC3
Продолжительность                        : 50 м. 46 с.
Вид битрейта                             : Постоянный
Битрейт                                  : 384 Кбит/сек
Каналы                                   : 6 каналов
Channel layout                           : L R C LFE Ls Rs
Частота                                  : 48,0 КГц
Частота кадров                           : 31,250 кадров/сек (1536 SPF)
Битовая глубина                          : 16 бит
Метод сжатия                             : С потерями
Размер потока                            : 139 Мбайт (5%)
Заголовок                                : Jaskier
Язык                                     : Russian
ServiceKind/String                       : Complete Main
Default                                  : Да
Forced                                   : Нет

Аудио #2
Идентификатор                            : 3
Формат                                   : AC-3
Формат/Информация                        : Audio Coding 3
Коммерческое название                    : Dolby Digital
Идентификатор кодека                     : A_AC3
Продолжительность                        : 50 м. 46 с.
Вид битрейта                             : Постоянный
Битрейт                                  : 384 Кбит/сек
Каналы                                   : 6 каналов
Channel layout                           : L R C LFE Ls Rs
Частота                                  : 48,0 КГц
Частота кадров                           : 31,250 кадров/сек (1536 SPF)
Битовая глубина                          : 16 бит
Метод сжатия                             : С потерями
Размер потока                            : 139 Мбайт (5%)
Язык                                     : English
ServiceKind/String                       : Complete Main
Default                                  : Нет
Forced                                   : Нет
скриншот  скриншот  скриншот  
pb.wtf



Скачать Ладья через торрент https://img16.lostpic.net/2019/09/05/a9326a7ed0536c91e0084747fb32ebbe.png Скачать фильм Ладья через торрент бесплантно в хорошем качестве Описание: Сверхспособности — это не только геройство в духе «Людей Икс», но и проблемы со спецслужбами. Так, по крайней мере, обстоят дела ... 10 10 2
Торрент: Зарегистрирован [2019-09-05 01:14] · скачан: 3 раз
Статус: √ проверено
Размер: 25.52 GB
Как cкачать? Как скачать Ладья через торрент | UTorrent

% Раздел Тема Автор DL S | L
Зарубежные сериалы [ 4.87 GB ] Ладья / The Rook / Сезон: 1 / Серии: 1-8 из 8 [2019 WEB-DLRip] MVO [Jaskier] bober100 Скачать
1 | 0
Зарубежные сериалы [ 13.37 GB ] Ладья / The Rook / Сезон: 1 / Серии: 1-8 из 8 [2019 . WEB-DL 720p] MVO [Jaskier] bober100 Скачать
1 | 0
Зарубежные сериалы [ 27.01 GB ] Ладья / The Rook / Сезон: 1 / Серии: 1-8 из 8 [2019 WEB-DL 1080p] MVO [Lostfilm] bober100 Скачать
1 | 0
Зарубежные сериалы [ 16.74 GB ] Ладья / The Rook / Сезон: 1 / Серии: 1-8 из 8 [2019 WEB-DL 720p] 2xMVO [Novamedia Lostfilm] bober100 Скачать
1 | 0
Зарубежные сериалы [ 25.7 GB ] Ладья / The Rook / Сезон: 1 / Серии: 1-8 из 8 [2019 WEB-DL 1080p] MVO [HDRezka Studio] bober100 Скачать
1 | 0
Зарубежные сериалы [ 5.48 GB ] Ладья / The Rook / Сезон: 1 / Серии: 1-8 из 8 [2019 WEBRip] MVO [HDRezka Studio] bober100 Скачать
1 | 0
Зарубежные сериалы [ 5.44 GB ] Ладья / The Rook / Сезон: 1 / Серии: 1-8 из 8 [2019 WEBRip 720p] [MVO] killermax2013 Скачать
1 | 0

28-11-2019 20:33  

Отключить всю рекламу на сайте

    Дорогой пользователь! Огромная просьба, поблагодарите релизера, оцените раздачу и оставьте свои комментарий, если Вы скачали Ладья через торрент бесплатно! Внесите свою лепту в развитие PiratBit!
    Комментировать посты могут только пользователи прошедшие не сложную регистрацию
    Показать сообщения:    

    Ладья через торрент
    Скачать бесплатно Ладья
    Ладья скачать торрент
    Ладья смотреть онлайн
    Cкачать фильм Ладья бесплатно
    Ладья скачать торрент в хорошем качестве
    Ладья смотреть онлайн бесплатно в хорошем качестве


    Вы не можете начинать темы
    Вы не можете отвечать на сообщения
    Вы не можете редактировать свои сообщения
    Вы не можете удалять свои сообщения
    Вы не можете голосовать в опросах
    Вы не можете прикреплять файлы к сообщениям
    Вы можете скачивать файлы