2 сезон

iTunes

1 сезон

1

iTunes

iTunes

iTunes

1 сезон

RePack

30

ИГРА 18+

pack

ВАЖНО

!!Акция!!

Alien_RageХит недели

RePack

MK11
pack

Забери бонус

RePack

jed

!!Акция!!

Alien_Rage

RePack

fifa19

RePack

Assassins Creed: Odyssey

RePack

NEED FOR SPEED™ PAYBACK

4 сезон

9 сезон

Бесстыжие 9 сезон

Все сериалы

все сериалы на PB.wtf

RePack

FAR CRY 5
  

Шторм / Сезон: 1 / Серии: 1-8 из 8 (Борис Хлебников) [2019, Драма, детектив, WEB-DL 1080p] pb.wtf

Шторм через торрент pb.wtf

Раздают: 2 [ 16 KB/s ]
Размер: 21.19 GB | Добавлен: 1 год назад | Торрент скачан:169 раз
Скачать  

05-09-2019 01:50 Шторм Скачать торрент  

Шторм
Год выпуска: 2019
Страна: Россия
Жанр: Драма, детектив
Продолжительность: ~ 00:50:00
Субтитры: отсутствуют

Режиссер: Борис Хлебников



В ролях: Александр Робак, Максим Лагашкин, Анна Михалкова, Анна Котова-Дерябина, Геннадий Смирнов, Михаил Брашинский, Илья Борисов, Дмитрий Лысенков, Александр Мосин, Дарья Жовнер, Сергей Уманов, Валерий Дьяченко, Мария Антонова , Егор Пчёлкин

Описание: В центре сюжета – двое друзей, Михаил Осокин (Максим Лагашкин) и Сергей Градов (Александр Робак). Первый работает в убойном отделе полиции, второй – в отделе по борьбе с коррупцией. Чтобы спасти жену от смертельной болезни и найти деньги на дорогостоящую операцию, Градов идет на должностные преступления и пытается скрыть улики. Изворотливый ум и талант выстраивать сложные многоходовые схемы делают его практически неуловимым. Расследующий череду преступлений Осокин начинает догадываться, что к делу причастен Градов, хотя достаточных доказательств у него пока нет. Для Михаила становится делом чести изобличить своего друга.

Качество: WEB-DL 1080p
Формат: MKV

Видео: 1920х1080 (16:9), 25 fps, AVC MPEG-4 (x264), High@L4.1 ~ 6400 kbps avg, 0.123 bit/pixel
Аудио: 48 kHz, AC3 Dolby Digital, 2/0 (L,R) ch, ~192 kbps
скриншот  скриншот  скриншот  скриншот  

Общее
Уникальный идентификатор : 196722503437612803220480652697689783935 (0x93FF604239E9A6ABBBA986E6CFF1FE7F)
Полное имя : G:Shtorm.2019.WEB-DL.(1080p).ExKinoRayShtorm.(01.seriya.iz.08).2019.WEB-DL.(1080p).ExKinoRay.mkv
Формат : Matroska
Версия формата : Version 4 / Version 2
Размер файла : 2,85 Гбайт
Продолжительность : 1 ч. 1 м.
Общий поток : 6696 Кбит/сек
Дата кодирования : UTC 2019-10-12 23:38:17
Программа кодирования : mkvmerge v6.9.1 ('Blue Panther') 64bit built on Apr 18 2014 18:23:38
Библиотека кодирования : libebml v1.3.0 + libmatroska v1.4.1

Видео
Идентификатор : 1
Формат : AVC
Формат/Информация : Advanced Video Codec
Профиль формата : High@L4.1
Настройки формата : CABAC / 4 Ref Frames
Параметр CABAC формата : Да
Параметр RefFrames формата : 4 кадра
Идентификатор кодека : V_MPEG4/ISO/AVC
Продолжительность : 1 ч. 1 м.
Битрейт : 6371 Кбит/сек
Ширина : 1920 пикселей
Высота : 1080 пикселей
Соотношение сторон : 16:9
Режим частоты кадров : Постоянный
Частота кадров : 25,000 кадров/сек
Цветовое пространство : YUV
Субдискретизация насыщенности : 4:2:0
Битовая глубина : 8 бит
Тип развёртки : Прогрессивная
Бит/(Пиксели*Кадры) : 0.123
Размер потока : 2,72 Гбайт (95%)
Default : Нет
Forced : Нет
Цветовой диапазон : Limited
Основные цвета : BT.709
Характеристики трансфера : BT.709
Коэффициенты матрицы : BT.709

Аудио
Идентификатор : 2
Формат : AC-3
Формат/Информация : Audio Coding 3
Идентификатор кодека : A_AC3
Продолжительность : 1 ч. 1 м.
Вид битрейта : Постоянный
Битрейт : 192 Кбит/сек
Каналы : 2 канала
Расположение каналов : Front: L R
Частота : 48,0 КГц
Частота кадров : 31,250 кадров/сек (1536 SPF)
Битовая глубина : 16 бит
Метод сжатия : С потерями
Размер потока : 83,8 Мбайт (3%)
Язык : Russian
Default : Да
Forced : Нет

Раздача ведётся путём добавления новых серий, при каждом добавлении создаётся новый торрент. Чтобы начать докачку новой серии, пользователям необходимо сделать следующее:

- Остановить скачивание.
- Удалить старый торрент у себя из клиента (старые серии удалять не надо).
- Скачать новый торрент и запустить его у себя в клиенте вместо старого, при этом указать клиенту путь в старую папку куда и должно происходить скачивание новых серий.

Ваш клиент при этом должен произвести хеширование (проверку) старой папки (если не производит сам - помогите ему сделать это), и будет докачивать только те серии которых у вас ещё нет. Старые серии при этом не удаляются, а продолжают раздаваться!
Если вы уже удалили старые серии, то предотвратить повторную закачку старых серий можно, отжав галочку в соответствующих местах при запуске нового торрента. По возможности, желательно не удалять старые серии как можно дольше, чтобы релизер не столько продолжал раздавать старые серии, а смог сконцентрироваться на новых.
pb.wtf



Скачать Шторм через торрент https://a.radikal.ru/a31/1909/81/04f0a2e0dafe.jpg Скачать фильм Шторм через торрент бесплантно в хорошем качестве Описание: В центре сюжета – двое друзей, Михаил Осокин (Максим Лагашкин) и Сергей Градов (Александр Робак). Первый работает в убойном ... 10 10 10
Торрент: Зарегистрирован [2019-10-17 10:17] · скачан: 169 раз
Статус: √ проверено
Размер: 21.19 GB
Как cкачать? Как скачать Шторм через торрент | qTorrent

% Раздел Тема Автор DL S | L
Наши сериалы [ 4.69 GB ] Шторм / Сезон: 1 / Серии: 1-8 из 8 [2019 WEB-DLRip] bober100 Скачать
2 | 0
Наши сериалы [ 11.69 GB ] Шторм / Сезон: 1 / Серии: 1-8 из 8 [2019 WEB-DL 720p] bober100 Скачать
4 | 0
Наши сериалы [ 5.69 GB ] Шторм / Сезон: 1 / Серии: 1-8 из 8 [2019 WEBRip-AVC] bober100 Скачать
2 | 0


Последний раз редактировалось: bober100 (2019-10-17 10:17), всего редактировалось 5 раз(а)

28-11-2019 20:33  

Отключить всю рекламу на сайте

14-09-2019 16:33 Шторм Скачать торрент  

норм вроде сериал!pb.wtf



12-03-2020 04:22 Шторм Скачать торрент  

а чо так Робака то много стало на ТНТ? pb.wtf



    Дорогой пользователь! Огромная просьба, поблагодарите релизера, оцените раздачу и оставьте свои комментарий, если Вы скачали Шторм через торрент бесплатно! Внесите свою лепту в развитие PiratBit!
    Комментировать посты могут только пользователи прошедшие не сложную регистрацию
    Показать сообщения:    

    Шторм через торрент
    Скачать бесплатно Шторм
    Шторм скачать торрент
    Шторм смотреть онлайн
    Cкачать фильм Шторм бесплатно
    Шторм скачать торрент в хорошем качестве
    Шторм смотреть онлайн бесплатно в хорошем качестве


    Вы не можете начинать темы
    Вы не можете отвечать на сообщения
    Вы не можете редактировать свои сообщения
    Вы не можете удалять свои сообщения
    Вы не можете голосовать в опросах
    Вы не можете прикреплять файлы к сообщениям
    Вы можете скачивать файлы