новый адрес
Ссылка на приватное зеркало всего за 1$. Внимание количество ограничено!!!

iTunes

1+1

iTunes

мы

WEB-DL

1

iTunes

Чернобыль

iTunes

Ральф против интернета

Лицензия

ПШазам

Лицензия

Оно 2

Лицензия

30
pack

Вам бонус

ВАЖНО

!!Акция!!

Alien_RageХит недели

RePack

Resident Evil 21

ИГРА 18+

pack

RePack

jed

!!Акция!!

Alien_Rage

RePack

fifa19

RePack

Assassins Creed: Odyssey

RePack

NEED FOR SPEED™ PAYBACK

3 сезон

9 сезон

Бесстыжие 9 сезон

Все сериалы

все сериалы на PB.wtf

RePack

FAR CRY 5
Ребята, катастрофически не хватает 1900р. для оплаты серверов за Октябрь (всвязи с блокировками трафик упал в 3 раза), 1-2р., выручайте.
  

Мертвые не умирают / The Dead Don't Die (Джим Джармуш) [2019, ужасы, фэнтези, комедия, BDRip-AVC] DUB [iTunes] pb.wtf

Мертвые не умирают через торрент pb.wtf

Раздают: 9 [ 0 KB/s ]
Размер: 2.17 GB | Добавлен: 3 мес. 2 д. назад | Торрент скачан:455 раз
Скачать  

05-09-2019 04:21 Мертвые не умирают Скачать торрент  

Мертвые не умирают / The Dead Don't Die«The Road To Survival Could Be A Dead End»
Год выпуска: 2019
Страна: США, Швеция
Жанр: ужасы, фэнтези, комедия
Продолжительность: 01:44:28
Перевод: Дублированный | iTunes
Субтитры: Русские (форс.), Английские (полные, SDH)

Режиссер: Джим Джармуш

rating

В ролях: Адам Драйвер, Билл Мюррей, Хлоя Севиньи, Тильда Суинтон, Стив Бушеми, Селена Гомес, RZA, Алисса Мария Апп, Карл Арчилези, Моника Эйрс

Описание: В маленьком американском городке что-то пошло не так. День наступает ночью, домашние животные убегают в лес, по радио играет одна и та же песня. Ученые, как обычно, не могут ничего толком объяснить. Хотя даже обывателю давно понятно, что это - предвестники зомби-апокалипсиса. И жители города как никогда готовы побороться за свою плоть!

Качество: BDRip-AVC
Формат: MKV

Видео: 1024x576 (16:9), 23,976 fps, x264 ~2 155 kbps avg, 0.152 bit/pixel
Аудио#1: 48 kHz, AC3 Dolby Digital Plus, 3/2 (L,C,R,l,r) + LFE ch, ~384.00 kbps avg | RUS (iTunes)
Аудио#2: 48 kHz, AC3 Dolby Digital Plus, 3/2 (L,C,R,l,r) + LFE ch, ~448.00 kbps avg | ENG
скриншот  скриншот  скриншот  

скриншот  скриншот  скриншот  

Общее
Уникальный идентификатор : 269701007091170030501706178783864058418 (0xCAE686497CC27C8A83C55FB097967232)
Полное имя : F:OlLanDGroupThe.Dead.Dont.Die.2019.BDRip(AVC).OllanDGroup.mkv
Формат : Matroska
Версия формата : Version 4 / Version 2
Размер файла : 2,17 Гбайт
Продолжительность : 1 ч. 44 м.
Общий поток : 2970 Кбит/сек
Название фильма : The.Dead.Dont.Die.2019 #TorpedoUK#
Дата кодирования : UTC 2019-09-05 02:12:37
Программа кодирования : mkvmerge v29.0.0 ('Like It Or Not') 64-bit
Библиотека кодирования : libebml v1.3.6 + libmatroska v1.4.9

Видео
Идентификатор : 1
Формат : AVC
Формат/Информация : Advanced Video Codec
Профиль формата : High@L4.1
Параметр CABAC формата : Да
Параметр ReFrames формата : 10 кадров
Идентификатор кодека : V_MPEG4/ISO/AVC
Продолжительность : 1 ч. 44 м.
Битрейт : 2155 Кбит/сек
Ширина : 1024 пикселя
Высота : 576 пикселей
Соотношение сторон : 16:9
Режим частоты кадров : Постоянный
Частота кадров : 23,976 (24000/1001) кадра/сек
Цветовое пространство : YUV
Субдискретизация насыщенности : 4:2:0
Битовая глубина : 8 бит
Тип развёртки : Прогрессивная
Бит/(Пиксели*Кадры) : 0.152
Размер потока : 1,56 Гбайт (72%)
Библиотека кодирования : x264 core 146 r2538 121396c
Настройки программы : cabac=1 / ref=10 / deblock=1:-2:-3 / analyse=0x3:0x113 / me=umh / subme=11 / psy=1 / psy_rd=0.90:0.10 / mixed_ref=1 / me_range=48 / chroma_me=1 / trellis=2 / 8x8dct=1 / cqm=0 / deadzone=21,11 / fast_pskip=1 / chroma_qp_offset=-6 / threads=6 / lookahead_threads=1 / sliced_threads=0 / nr=0 / decimate=1 / interlaced=0 / bluray_compat=0 / constrained_intra=0 / bframes=11 / b_pyramid=2 / b_adapt=2 / b_bias=0 / direct=3 / weightb=1 / open_gop=0 / weightp=2 / keyint=240 / keyint_min=23 / scenecut=40 / intra_refresh=0 / rc_lookahead=40 / rc=2pass / mbtree=0 / bitrate=2155 / ratetol=1.0 / qcomp=0.60 / qpmin=0 / qpmax=69 / qpstep=4 / cplxblur=20.0 / qblur=0.5 / vbv_maxrate=50000 / vbv_bufsize=62500 / nal_hrd=none / filler=0 / ip_ratio=1.40 / pb_ratio=1.30 / aq=1:1.00
Язык : English
Default : Да
Forced : Нет

Аудио #1
Идентификатор : 2
Формат : AC-3
Формат/Информация : Audio Coding 3
Расширение режима : CM (complete main)
Параметр Endianness формата : Big
Идентификатор кодека : A_AC3
Продолжительность : 1 ч. 44 м.
Вид битрейта : Постоянный
Битрейт : 384 Кбит/сек
Каналы : 6 каналов
Расположение каналов : Front: L C R, Side: L R, LFE
Частота : 48,0 КГц
Частота кадров : 31,250 кадров/сек (1536 spf)
Битовая глубина : 16 бит
Метод сжатия : С потерями
Размер потока : 287 Мбайт (13%)
Заголовок : DUB [iTunes]
Язык : Russian
Default : Да
Forced : Нет

Аудио #2
Идентификатор : 3
Формат : AC-3
Формат/Информация : Audio Coding 3
Расширение режима : CM (complete main)
Параметр Endianness формата : Big
Идентификатор кодека : A_AC3
Продолжительность : 1 ч. 44 м.
Вид битрейта : Постоянный
Битрейт : 448 Кбит/сек
Каналы : 6 каналов
Расположение каналов : Front: L C R, Side: L R, LFE
Частота : 48,0 КГц
Частота кадров : 31,250 кадров/сек (1536 spf)
Битовая глубина : 16 бит
Метод сжатия : С потерями
Размер потока : 335 Мбайт (15%)
Заголовок : [Original]
Язык : English
Default : Нет
Forced : Нет

Текст #1
Идентификатор : 4
Формат : UTF-8
Идентификатор кодека : S_TEXT/UTF8
Идентификатор кодека/Информация : UTF-8 Plain Text
Продолжительность : 1 ч. 18 м.
Битрейт : 0 бит/сек
Count of elements : 10
Размер потока : 396 байт (0%)
Заголовок : Forced
Язык : Russian
Default : Да
Forced : Нет

Текст #2
Идентификатор : 5
Формат : UTF-8
Идентификатор кодека : S_TEXT/UTF8
Идентификатор кодека/Информация : UTF-8 Plain Text
Продолжительность : 1 ч. 41 м.
Битрейт : 43 бит/сек
Count of elements : 1142
Размер потока : 32,3 Кбайт (0%)
Заголовок : Full
Язык : English
Default : Нет
Forced : Нет

Текст #3
Идентификатор : 6
Формат : UTF-8
Идентификатор кодека : S_TEXT/UTF8
Идентификатор кодека/Информация : UTF-8 Plain Text
Продолжительность : 1 ч. 42 м.
Битрейт : 52 бит/сек
Count of elements : 1365
Размер потока : 39,3 Кбайт (0%)
Заголовок : SDH
Язык : English
Default : Нет
Forced : Нет

Меню
00:00:00.000 : :Chapter 01
00:05:01.384 : :Chapter 02
00:10:04.437 : :Chapter 03
00:17:04.148 : :Chapter 04
00:22:28.847 : :Chapter 05
00:28:04.724 : :Chapter 06
00:31:36.269 : :Chapter 07
00:37:56.649 : :Chapter 08
00:43:22.641 : :Chapter 09
00:50:53.050 : :Chapter 10
00:57:04.504 : :Chapter 11
01:01:16.964 : :Chapter 12
01:06:41.580 : :Chapter 13
01:09:20.823 : :Chapter 14
01:14:47.774 : :Chapter 15
01:18:47.681 : :Chapter 16
01:23:50.442 : :Chapter 17
01:28:10.201 : :Chapter 18
01:33:15.798 : :Chapter 19
01:39:11.487 : :Chapter 20

pb.wtf



Скачать Мертвые не умирают через торрент https://i87.fastpic.ru/big/2019/0905/46/e7c4ffa8179b04c84443664f6d13a346.jpg Скачать фильм Мертвые не умирают через торрент бесплантно в хорошем качестве Описание: В маленьком американском городке что-то пошло не так. День наступает ночью, домашние животные убегают в лес, по радио играет одна ... 9 10 17
Торрент: Зарегистрирован [2019-09-05 04:21] · скачан: 455 раз
Статус: √ проверено
Размер: 2.17 GB
Как cкачать? Как скачать Мертвые не умирают через торрент | qTorrent

28-11-2019 20:33  

Отключить всю рекламу на сайте

05-09-2019 05:05 Мертвые не умирают Скачать торрент  

Спасибо pb.wtf



05-09-2019 09:40 Мертвые не умирают Скачать торрент  

Троечок с натяжкой! плохой вышел фильмpb.wtf



06-09-2019 10:49 Мертвые не умирают Скачать торрент  

просто шлакpb.wtf



08-09-2019 14:32 Мертвые не умирают Скачать торрент  

АЦТОЙ! не пойму откуда такой бал на кинопоиске?! не тратте свое время-не качайтеpb.wtf



    Дорогой пользователь! Огромная просьба, поблагодарите релизера, оцените раздачу и оставьте свои комментарий, если Вы скачали Мертвые не умирают через торрент бесплатно! Внесите свою лепту в развитие PiratBit!
    Комментировать посты могут только пользователи прошедшие не сложную регистрацию
    Показать сообщения:    

    Мертвые не умирают через торрент
    Скачать бесплатно Мертвые не умирают
    Мертвые не умирают скачать торрент
    Мертвые не умирают смотреть онлайн
    Cкачать фильм Мертвые не умирают бесплатно
    Мертвые не умирают скачать торрент в хорошем качестве
    Мертвые не умирают смотреть онлайн бесплатно в хорошем качестве


    Вы не можете начинать темы
    Вы не можете отвечать на сообщения
    Вы не можете редактировать свои сообщения
    Вы не можете удалять свои сообщения
    Вы не можете голосовать в опросах
    Вы не можете прикреплять файлы к сообщениям
    Вы можете скачивать файлы