новый адрес
Ссылка на приватное зеркало всего за 1$. Внимание количество ограничено!!!

iTunes

1+1

iTunes

мы

WEB-DL

1

iTunes

Чернобыль

iTunes

Ральф против интернета

Лицензия

ПШазам

Лицензия

Оно 2

Лицензия

30
pack

Вам бонус

ВАЖНО

!!Акция!!

Alien_RageХит недели

RePack

Resident Evil 21

ИГРА 18+

pack

RePack

jed

!!Акция!!

Alien_Rage

RePack

fifa19

RePack

Assassins Creed: Odyssey

RePack

NEED FOR SPEED™ PAYBACK

3 сезон

9 сезон

Бесстыжие 9 сезон

Все сериалы

все сериалы на PB.wtf

RePack

FAR CRY 5
Ребята, катастрофически не хватает 1900р. для оплаты серверов за Октябрь (всвязи с блокировками трафик упал в 3 раза), 1-2р., выручайте.
  

Маленькое красное платье / In Fabric (Питер Стриклэнд) [2018, Ужасы, комедия, BDRip-AVC] 2xMVO [iTunes, HDRezka Studio] pb.wtf

Маленькое красное платье через торрент pb.wtf

Раздают: 3 [ 0 KB/s ]
Размер: 2.36 GB | Добавлен: 2 мес. 21 д. назад | Торрент скачан:33 раза
Скачать  

05-09-2019 10:56 Маленькое красное платье Скачать торрент  

Маленькое красное платье / In Fabric
«Красота требует жертв»

Год выпуска: 2018
Страна: Великобритания
Жанр: Ужасы, комедия
Продолжительность: 01:58:41
Перевод:

Профессиональный многоголосый | iTunes
Профессиональный (многоголосый) | HDRezka Studio

Субтитры: Английские (полные, SDH)

Режиссер: Питер Стриклэнд

rating

В ролях: Гвендолин Кристи, Сидсе Бабетт Кнудсен, Кэролайн Катц, Джулиан Бэррэтт, Марианн Жан-Баптист, Хейли Сквайрс, Ричард Бреммер, Лео Билл, Стив Орам, Сузанна Каппельяро

Описание: Маленькое красное платье стоит в витрине. Оно невероятно красиво и идеально подходит каждой, кто его примеряет. Оно делает тебя желанной, но у платья есть цена. И не каждый сможет ее заплатить.

Качество: BDRip-AVC
Формат: MKV

Видео: 1024x428 (2.40:1), 24,000 fps, x264 ~1 822 kbps avg, 0.173 bit/pixel
Аудио #1: 48 kHz, AC3 Dolby Digital, 3/2 (L,C,R,l,r) + LFE ch, ~384.00 kbps avg | RUS (iTunes)
Аудио #2: 48 kHz, AC3 Dolby Digital, 2 (L,R) ch, ~192.00 kbps avg | RUS (HDRezka Studio)
Аудио #3: 48 kHz, AC3 Dolby Digital, 3/2 (L,C,R,l,r) + LFE ch, ~448.00 kbps avg | ENG
скриншот  скриншот  скриншот  скриншот  скриншот  

Общее
Уникальный идентификатор : 315715500645491510062144225245721115559 (0xED8497FA1AA778B942A1A4282AD1BBA7)
Полное имя : F:OlLanDGroupIn.Fabric.2018.BDRip(AVC).OlLanDGroup.mkv
Формат : Matroska
Версия формата : Version 4 / Version 2
Размер файла : 2,36 Гбайт
Продолжительность : 1 ч. 58 м.
Общий поток : 2843 Кбит/сек
Название фильма : In.Fabric.2018 #TorpedoUK#
Дата кодирования : UTC 2019-09-16 11:13:11
Программа кодирования : mkvmerge v29.0.0 ('Like It Or Not') 64-bit
Библиотека кодирования : libebml v1.3.6 + libmatroska v1.4.9

Видео
Идентификатор : 1
Формат : AVC
Формат/Информация : Advanced Video Codec
Профиль формата : High@L4.1
Параметр CABAC формата : Да
Параметр ReFrames формата : 10 кадров
Идентификатор кодека : V_MPEG4/ISO/AVC
Продолжительность : 1 ч. 58 м.
Битрейт : 1822 Кбит/сек
Ширина : 1024 пикселя
Высота : 428 пикселей
Соотношение сторон : 2,40:1
Режим частоты кадров : Постоянный
Частота кадров : 24,000 кадра/сек
Цветовое пространство : YUV
Субдискретизация насыщенности : 4:2:0
Битовая глубина : 8 бит
Тип развёртки : Прогрессивная
Бит/(Пиксели*Кадры) : 0.173
Размер потока : 1,51 Гбайт (64%)
Библиотека кодирования : x264 core 146 r2538 121396c
Настройки программы : cabac=1 / ref=10 / deblock=1:-2:-3 / analyse=0x3:0x113 / me=umh / subme=11 / psy=1 / psy_rd=0.90:0.10 / mixed_ref=1 / me_range=48 / chroma_me=1 / trellis=2 / 8x8dct=1 / cqm=0 / deadzone=21,11 / fast_pskip=1 / chroma_qp_offset=-6 / threads=6 / lookahead_threads=1 / sliced_threads=0 / nr=0 / decimate=1 / interlaced=0 / bluray_compat=0 / constrained_intra=0 / bframes=11 / b_pyramid=2 / b_adapt=2 / b_bias=0 / direct=3 / weightb=1 / open_gop=0 / weightp=2 / keyint=240 / keyint_min=24 / scenecut=40 / intra_refresh=0 / rc_lookahead=40 / rc=2pass / mbtree=0 / bitrate=1822 / ratetol=1.0 / qcomp=0.60 / qpmin=0 / qpmax=69 / qpstep=4 / cplxblur=20.0 / qblur=0.5 / vbv_maxrate=50000 / vbv_bufsize=62500 / nal_hrd=none / filler=0 / ip_ratio=1.40 / pb_ratio=1.30 / aq=1:1.00
Язык : English
Default : Да
Forced : Нет

Аудио #1
Идентификатор : 2
Формат : AC-3
Формат/Информация : Audio Coding 3
Расширение режима : CM (complete main)
Параметр Endianness формата : Big
Идентификатор кодека : A_AC3
Продолжительность : 1 ч. 58 м.
Вид битрейта : Постоянный
Битрейт : 384 Кбит/сек
Каналы : 6 каналов
Расположение каналов : Front: L C R, Side: L R, LFE
Частота : 48,0 КГц
Частота кадров : 31,250 кадров/сек (1536 spf)
Битовая глубина : 16 бит
Метод сжатия : С потерями
Размер потока : 326 Мбайт (14%)
Заголовок : MVO [iTunes]
Язык : Russian
Default : Да
Forced : Нет

Аудио #2
Идентификатор : 3
Формат : AC-3
Формат/Информация : Audio Coding 3
Расширение режима : CM (complete main)
Параметр Endianness формата : Big
Идентификатор кодека : A_AC3
Продолжительность : 1 ч. 58 м.
Вид битрейта : Постоянный
Битрейт : 192 Кбит/сек
Каналы : 2 канала
Расположение каналов : Front: L R
Частота : 48,0 КГц
Частота кадров : 31,250 кадров/сек (1536 spf)
Битовая глубина : 16 бит
Метод сжатия : С потерями
Размер потока : 163 Мбайт (7%)
Заголовок : MVO [HDRezka Studio]
Язык : Russian
Default : Нет
Forced : Нет

Аудио #3
Идентификатор : 4
Формат : AC-3
Формат/Информация : Audio Coding 3
Расширение режима : CM (complete main)
Параметр Endianness формата : Big
Идентификатор кодека : A_AC3
Продолжительность : 1 ч. 58 м.
Вид битрейта : Постоянный
Битрейт : 448 Кбит/сек
Каналы : 6 каналов
Расположение каналов : Front: L C R, Side: L R, LFE
Частота : 48,0 КГц
Частота кадров : 31,250 кадров/сек (1536 spf)
Битовая глубина : 16 бит
Метод сжатия : С потерями
Размер потока : 380 Мбайт (16%)
Заголовок : [Original]
Язык : English
Default : Нет
Forced : Нет

Текст #1
Идентификатор : 5
Формат : UTF-8
Идентификатор кодека : S_TEXT/UTF8
Идентификатор кодека/Информация : UTF-8 Plain Text
Продолжительность : 1 ч. 54 м.
Битрейт : 46 бит/сек
Count of elements : 1005
Размер потока : 39,3 Кбайт (0%)
Заголовок : Full
Язык : English
Default : Нет
Forced : Нет

Текст #2
Идентификатор : 6
Формат : UTF-8
Идентификатор кодека : S_TEXT/UTF8
Идентификатор кодека/Информация : UTF-8 Plain Text
Продолжительность : 1 ч. 56 м.
Битрейт : 54 бит/сек
Count of elements : 1209
Размер потока : 46,7 Кбайт (0%)
Заголовок : SDH
Язык : English
Default : Нет
Forced : Нет

Меню
00:00:00.000 : en:Chapter 01
00:07:20.583 : en:Chapter 02
00:17:52.958 : en:Chapter 03
00:24:31.625 : en:Chapter 04
00:37:39.875 : en:Chapter 05
00:57:11.750 : en:Chapter 06
01:05:46.916 : en:Chapter 07
01:14:55.625 : en:Chapter 08
01:27:47.791 : en:Chapter 09
01:39:48.333 : en:Chapter 10
01:46:39.333 : en:Chapter 11
01:53:46.958 : en:Chapter 12

pb.wtf



Скачать Маленькое красное платье через торрент https://i106.fastpic.ru/big/2019/0905/6b/b9adc56c740717f75c5b509e21c86e6b.jpg Скачать фильм Маленькое красное платье через торрент бесплантно в хорошем качестве Описание: Маленькое красное платье стоит в витрине. Оно невероятно красиво и идеально подходит каждой, кто его примеряет. Оно делает тебя ... 10 10 9
Торрент: Зарегистрирован [2019-09-17 03:19] · скачан: 33 раз
Статус: √ проверено
Размер: 2.36 GB
Как cкачать? Как скачать Маленькое красное платье через торрент | qTorrent

% Раздел Тема Автор DL S | L
Фильмы (Blu-ray, BD-Remux, HDDVD) [ 25.05 GB ] Маленькое красное платье / In Fabric [2018 BD Remux 1080p] MVO bober100 Скачать
1 | 0
Фильмы [HD 720p, 1080p] (Хороший звук DUB, MVO) [ 14.23 GB ] Маленькое красное платье / In Fabric [2018 BDRip 1080p] MVO bober100 Скачать
3 | 0
Фильмы 2018 [DVDrip, WEB-DLRip, HDrip] (DUB, MVO) [ 2.13 GB ] Маленькое красное платье / In Fabric [2018 BDRip] MVO Twi7ter Скачать
11 | 0
Фильмы 2018 [DVDrip, WEB-DLRip, HDrip] (DUB, MVO) [ 1.41 GB ] Маленькое красное платье / In Fabric [2018 BDRip] MVO Twi7ter Скачать
41 | 2
T Фильмы 2018 [DVDrip, WEB-DLRip, HDrip] (DUB, MVO) [ 1.46 GB ] Маленькое красное платье / In Fabric [2018 BDRip] MVO [HDRezka Studio] bober100 Скачать
2 | 0


Последний раз редактировалось: bober100 (2019-09-17 03:19), всего редактировалось 1 раз

28-11-2019 20:33  

Отключить всю рекламу на сайте

    Дорогой пользователь! Огромная просьба, поблагодарите релизера, оцените раздачу и оставьте свои комментарий, если Вы скачали Маленькое красное платье через торрент бесплатно! Внесите свою лепту в развитие PiratBit!
    Комментировать посты могут только пользователи прошедшие не сложную регистрацию
    Показать сообщения:    

    Маленькое красное платье через торрент
    Скачать бесплатно Маленькое красное платье
    Маленькое красное платье скачать торрент
    Маленькое красное платье смотреть онлайн
    Cкачать фильм Маленькое красное платье бесплатно
    Маленькое красное платье скачать торрент в хорошем качестве
    Маленькое красное платье смотреть онлайн бесплатно в хорошем качестве


    Вы не можете начинать темы
    Вы не можете отвечать на сообщения
    Вы не можете редактировать свои сообщения
    Вы не можете удалять свои сообщения
    Вы не можете голосовать в опросах
    Вы не можете прикреплять файлы к сообщениям
    Вы можете скачивать файлы