новый адрес
Ссылка на приватное зеркало всего за 1$. Внимание количество ограничено!!!

iTunes

1+1

iTunes

мы

WEB-DL

1

iTunes

Чернобыль

iTunes

Ральф против интернета

Лицензия

ПШазам

Лицензия

Оно 2

Лицензия

30
pack

Вам бонус

ВАЖНО

!!Акция!!

Alien_RageХит недели

RePack

Resident Evil 21

ИГРА 18+

pack

RePack

jed

!!Акция!!

Alien_Rage

RePack

fifa19

RePack

Assassins Creed: Odyssey

RePack

NEED FOR SPEED™ PAYBACK

3 сезон

9 сезон

Бесстыжие 9 сезон

Все сериалы

все сериалы на PB.wtf

RePack

FAR CRY 5
Ребята, катастрофически не хватает 1900р. для оплаты серверов за Октябрь (всвязи с блокировками трафик упал в 3 раза), 1-2р., выручайте.
  

Мертвые не умирают / The Dead Don't Die (Джим Джармуш) [2019, ужасы, фэнтези, комедия, BDRip] DUB [iTunes] pb.wtf

Мертвые не умирают через торрент pb.wtf

Раздают: 2 [ 0 KB/s ]
Размер: 735 MB | Добавлен: 3 мес. 2 д. назад | Торрент скачан:183 раза
Скачать  

05-09-2019 11:02 Мертвые не умирают Скачать торрент  

Мертвые не умирают / The Dead Don't Die
Год выпуска: 2019
Страна: США, Швеция
Жанр: ужасы, фэнтези, комедия
Продолжительность: 01:44:28
Перевод: Дублированный | iTunes
Субтитры: отсутствуют

Режиссер: Джим Джармуш

rating

В ролях: Адам Драйвер, Билл Мюррей, Хлоя Севиньи, Тильда Суинтон, Стив Бушеми, Селена Гомес, RZA, Алисса Мария Апп, Карл Арчилези, Моника Эйрс

Описание: В маленьком американском городке что-то пошло не так. День наступает ночью, домашние животные убегают в лес, по радио играет одна и та же песня. Ученые, как обычно, не могут ничего толком объяснить. Хотя даже обывателю давно понятно, что это - предвестники зомби-апокалипсиса. И жители города как никогда готовы побороться за свою плоть!

Качество: BDRip
Формат: AVI

Видео: 688x392 (1.76:1), 23.976 fps, XviD build 50 ~846 kbps avg, 0.13 bit/pixel
Аудио: 48 kHz, MPEG Layer 3, 2 ch, ~128.00 kbps avg
скриншот  скриншот  скриншот  скриншот  скриншот  

Общее
Полное имя: C:\TheDeadDontDieBDRip.740.mb.avi
Формат: AVI
Формат/Информация: Audio Video Interleave
Размер файла: 735 Мбайт
Продолжительность: 1 ч. 44 м.
Общий поток: 984 Кбит/сек
Программа кодирования: VirtualDubMod 1.5.10.3 | (build 2550/release)
Библиотека кодирования: VirtualDubMod build 2550/release

Видео
Идентификатор: 0
Формат: MPEG-4 Visual
Профиль формата: Advanced Simple@L5
Параметр BVOP формата: 1
Параметр QPel формата: Нет
Параметр GMC формата: Без точки перехода
Параметр матрицы формата: Default (H.263)
Идентификатор кодека: XVID
Идентификатор кодека/Подсказка: XviD
Продолжительность: 1 ч. 44 м.
Битрейт: 846 Кбит/сек
Ширина: 688 пикселей
Высота: 392 пикселя
Соотношение сторон: 16:9
Частота кадров: 23,976 кадра/сек
Цветовое пространство: YUV
Субдискретизация насыщенности: 4:2:0
Битовая глубина: 8 бит
Тип развёртки: Прогрессивная
Метод сжатия: С потерями
Бит/(Пиксели*Кадры): 0.131
Размер потока: 632 Мбайт (86%)
Библиотека кодирования: XviD 1.2.1 (UTC 2008-12-04)

Аудио
Идентификатор: 1
Формат: MPEG Audio
Версия формата: Version 1
Профиль формата: Layer 3
Идентификатор кодека: 55
Идентификатор кодека/Подсказка: MP3
Продолжительность: 1 ч. 44 м.
Вид битрейта: Постоянный
Битрейт: 128 Кбит/сек
Каналы: 2 канала
Частота: 48,0 КГц
Метод сжатия: С потерями
Размер потока: 95,6 Мбайт (13%)
Выравнивание: Соединение по промежуткам
Продолжительность промежутка: 42 мс. (1,00 видеокадр)
Время предзагрузки промежутка: 504 мс.
Библиотека кодирования: LAME3.99r
Настройки программы: -m s -V 4 -q 2 -lowpass 17 -b 128

pb.wtf



Скачать Мертвые не умирают через торрент https://d.radikal.ru/d01/1909/52/9eb368e8a03d.png Скачать фильм Мертвые не умирают через торрент бесплантно в хорошем качестве Описание: В маленьком американском городке что-то пошло не так. День наступает ночью, домашние животные убегают в лес, по радио играет одна ... 9 10 9
Торрент: Зарегистрирован [2019-09-05 11:02] · скачан: 183 раз
Статус: √ проверено
Размер: 735 MB
Как cкачать? Как скачать Мертвые не умирают через торрент | qTorrent

28-11-2019 20:33  

Отключить всю рекламу на сайте

05-09-2019 15:50 Мертвые не умирают Скачать торрент  

полное дерьмищеpb.wtf



06-09-2019 18:52 Мертвые не умирают Скачать торрент  

giv73 писал(а):

полное дерьмище

СПАСИБО ДРУГpb.wtf



    Дорогой пользователь! Огромная просьба, поблагодарите релизера, оцените раздачу и оставьте свои комментарий, если Вы скачали Мертвые не умирают через торрент бесплатно! Внесите свою лепту в развитие PiratBit!
    Комментировать посты могут только пользователи прошедшие не сложную регистрацию
    Показать сообщения:    

    Мертвые не умирают через торрент
    Скачать бесплатно Мертвые не умирают
    Мертвые не умирают скачать торрент
    Мертвые не умирают смотреть онлайн
    Cкачать фильм Мертвые не умирают бесплатно
    Мертвые не умирают скачать торрент в хорошем качестве
    Мертвые не умирают смотреть онлайн бесплатно в хорошем качестве


    Вы не можете начинать темы
    Вы не можете отвечать на сообщения
    Вы не можете редактировать свои сообщения
    Вы не можете удалять свои сообщения
    Вы не можете голосовать в опросах
    Вы не можете прикреплять файлы к сообщениям
    Вы можете скачивать файлы