Всегда рабочее зеркало без VPN и Proxy просто перед .vidak.icu напиши любое слово или цифру, Пример http://xr20.vidak.icu

Лицензия

MVO

1 сезон

1

1 сезон

iTunes

1 сезон

13

1 сезон

Deluxe

pack

Рекомендуем

Repack

30

ВАЖНО

RePack

MK11

RePack

jed

RePack

fifa19

RePack

RDR2

RePack

NEED FOR SPEED™ PAYBACK

Кинопоиск HD

6 сезон

 Острые козырьки 6 сезон

Все сериалы

все сериалы на PB.wtf

RePack

FAR CRY 5
  
Magnet ссылка

Джон Уик 3 / John Wick: Chapter 3 - Parabellum (Чад Стахелски) [2019, боевик, триллер, криминал, UHD BDRemux 2160p] DUB [iTunes] +MVO [HDRezka Studio] +AVO [Д. Есарев] pb.wtf

Джон Уик 3 через торрент pb.wtf

Размер: 63.11 GB | Добавлен: 2 года 11 мес. назад | Торрент скачан:103 раза
Смотреть онлайн Джон Уик 3 | Скачать    Ребята, помогите собрать деньги на оплату серверов!!!

05-09-2019 11:48 Джон Уик 3 Скачать торрент  

Джон Уик 3 / John Wick: Chapter 3 - Parabellum
Год выпуска: 2019
Страна: США
Жанр: боевик, триллер, криминал
Продолжительность: 02:10:45
Перевод:

#1: Дублированный | iTunes
#2: Профессиональный многоголосый | HDRezka Studio
#3: Авторский (одноголосый, закадровый) | Д. Есарев

Субтитры: Русские (Forced, full x2), английские (full, SDH, SDH-Colored)

Режиссер: Чад Стахелски

rating

В ролях:

Киану Ривз (John Wick), Холли Берри (Sofia), Иэн МакШейн (Winston), Лоренс Фишбёрн (Bowery King), Марк Дакаскос (Zero), Азия Кейт Диллон (The Adjudicator), Лэнс Реддик (Charon), Тобиаш Сигал (Earl), Анжелика Хьюстон (The Director), Саид Тагмауи (The Elder), Джером Флинн (Berrada), Рэндолл Дак Ким (Doctor)
Описание: Суперкиллер Джон Уик после нарушения кодекса тайной гильдии ассасинов получает статус изгоя - экскомьюникадо. За его голову назначена цена в 14 миллионов долларов, и армия самых жестоких профессиональных убийц со всего мира открывает на него кровавую охоту.

Качество: UHD BDRemux 2160p
Формат: MKV

Видео: HEVC/H.265 HDR, 3840x2160, (16:9), 63.2 Mbps, 23.976 fps
Аудио 1: AC3, 6 ch, 384 Kbps - Русский (DUB, iTunes)
Аудио 2: AC3, 2 ch, 192 Kbps - Русский (MVO, HDRezka Studio)
Аудио 3: AC3, 6 ch, 640 Kbps - Русский (AVO, Д. Есарев)
Аудио 4: TrueHD+Atmos, 8 ch, 4012 Kbps - Английский
Аудио 5: AC3, 6 ch, 640 Kbps - Английский
скриншот  скриншот  скриншот  скриншот  

General
Unique ID : 305541497175463007361589111415709799376 (0xE5DD26E0B5F0AA62F3D66AD743E693D0)
Complete name : F:John.Wick.Chapter.3.Parabellum.2019.UHDBDRemux.2160p.NNMClub.mkv
Format : Matroska
Format version : Version 4
File size : 63.1 GiB
Duration : 2 h 10 min
Overall bit rate mode : Variable
Overall bit rate : 69.1 Mb/s
Movie name : John Wick: Chapter 3 - Parabellum (2019) | NNMClub
Encoded date : UTC 2019-09-05 12:14:10
Writing application : mkvmerge v37.0.0 ('Leave It') 64-bit
Writing library : libebml v1.3.9 + libmatroska v1.5.2
Cover : Yes
Attachments : Cover.jpg

Video
ID : 1
Format : HEVC
Format/Info : High Efficiency Video Coding
Format profile : Main [email protected]@High
HDR format : SMPTE ST 2086, HDR10 compatible
Codec ID : V_MPEGH/ISO/HEVC
Duration : 2 h 10 min
Bit rate : 63.2 Mb/s
Width : 3 840 pixels
Height : 2 160 pixels
Display aspect ratio : 16:9
Frame rate mode : Constant
Frame rate : 23.976 (24000/1001) FPS
Color space : YUV
Chroma subsampling : 4:2:0 (Type 2)
Bit depth : 10 bits
Bits/(Pixel*Frame) : 0.318
Stream size : 57.7 GiB (91%)
Title : John Wick: Chapter 3 - Parabellum (2019)
Language : English
Default : Yes
Forced : No
Color range : Limited
Color primaries : BT.2020
Transfer characteristics : PQ
Matrix coefficients : BT.2020 non-constant
Mastering display color pri : Display P3
Mastering display luminance : min: 0.0010 cd/m2, max: 1000 cd/m2
Maximum Content Light Level : 1000 cd/m2
Maximum Frame-Average Light : 358 cd/m2

Audio #1
ID : 2
Format : AC-3
Format/Info : Audio Coding 3
Commercial name : Dolby Digital
Codec ID : A_AC3
Duration : 2 h 10 min
Bit rate mode : Constant
Bit rate : 384 kb/s
Channel(s) : 6 channels
Channel layout : L R C LFE Ls Rs
Sampling rate : 48.0 kHz
Frame rate : 31.250 FPS (1536 SPF)
Bit depth : 16 bits
Compression mode : Lossy
Stream size : 359 MiB (1%)
Title : DUB | iTunes
Language : Russian
Service kind : Complete Main
Default : Yes
Forced : No

Audio #2
ID : 3
Format : AC-3
Format/Info : Audio Coding 3
Commercial name : Dolby Digital
Codec ID : A_AC3
Duration : 2 h 10 min
Bit rate mode : Constant
Bit rate : 192 kb/s
Channel(s) : 2 channels
Channel layout : L R
Sampling rate : 48.0 kHz
Frame rate : 31.250 FPS (1536 SPF)
Bit depth : 16 bits
Compression mode : Lossy
Stream size : 180 MiB (0%)
Title : MVO | HDRezka Studio
Language : Russian
Service kind : Complete Main
Default : No
Forced : No

Audio #3
ID : 4
Format : AC-3
Format/Info : Audio Coding 3
Commercial name : Dolby Digital
Codec ID : A_AC3
Duration : 2 h 10 min
Bit rate mode : Constant
Bit rate : 640 kb/s
Channel(s) : 6 channels
Channel layout : L R C LFE Ls Rs
Sampling rate : 48.0 kHz
Frame rate : 31.250 FPS (1536 SPF)
Bit depth : 16 bits
Compression mode : Lossy
Stream size : 599 MiB (1%)
Title : AVO | Д. Есарев
Language : Russian
Service kind : Complete Main
Default : No
Forced : No

Audio #4
ID : 5
Format : MLP FBA 16-ch
Format/Info : Meridian Lossless Packing FBA with 16-channel presentation
Commercial name : Dolby TrueHD with Dolby Atmos
Codec ID : A_TRUEHD
Duration : 2 h 10 min
Bit rate mode : Variable
Bit rate : 4 012 kb/s
Maximum bit rate : 6 327 kb/s
Channel(s) : 8 channels
Channel layout : L R C LFE Ls Rs Lb Rb
Sampling rate : 48.0 kHz
Frame rate : 1 200.000 FPS (40 SPF)
Compression mode : Lossless
Stream size : 3.66 GiB (6%)
Title : Original
Language : English
Default : No
Forced : No
Number of dynamic objects : 15
Bed channel count : 1 channel
Bed channel configuration : LFE

Audio #5
ID : 6
Format : AC-3
Format/Info : Audio Coding 3
Commercial name : Dolby Digital
Codec ID : A_AC3
Duration : 2 h 10 min
Bit rate mode : Constant
Bit rate : 640 kb/s
Channel(s) : 6 channels
Channel layout : L R C LFE Ls Rs
Sampling rate : 48.0 kHz
Frame rate : 31.250 FPS (1536 SPF)
Bit depth : 16 bits
Compression mode : Lossy
Stream size : 599 MiB (1%)
Title : Original
Language : English
Service kind : Complete Main
Default : No
Forced : No

Text #1
ID : 7
Format : UTF-8
Codec ID : S_TEXT/UTF8
Codec ID/Info : UTF-8 Plain Text
Duration : 2 h 2 min
Bit rate : 1 b/s
Count of elements : 32
Stream size : 1.03 KiB (0%)
Title : Forced
Language : Russian
Default : Yes
Forced : No

Text #2
ID : 8
Format : UTF-8
Codec ID : S_TEXT/UTF8
Codec ID/Info : UTF-8 Plain Text
Duration : 2 h 1 min
Bit rate : 38 b/s
Count of elements : 761
Stream size : 34.6 KiB (0%)
Title : Full (Focs)
Language : Russian
Default : No
Forced : No

Text #3
ID : 9
Format : UTF-8
Codec ID : S_TEXT/UTF8
Codec ID/Info : UTF-8 Plain Text
Duration : 2 h 2 min
Bit rate : 38 b/s
Count of elements : 797
Stream size : 34.6 KiB (0%)
Title : Full (Enigma)
Language : Russian
Default : No
Forced : No

Text #4
ID : 10
Format : UTF-8
Codec ID : S_TEXT/UTF8
Codec ID/Info : UTF-8 Plain Text
Duration : 1 h 59 min
Bit rate : 24 b/s
Count of elements : 764
Stream size : 21.3 KiB (0%)
Title : Full
Language : English
Default : No
Forced : No

Text #5
ID : 11
Format : UTF-8
Codec ID : S_TEXT/UTF8
Codec ID/Info : UTF-8 Plain Text
Duration : 2 h 0 min
Bit rate : 32 b/s
Count of elements : 1157
Stream size : 28.5 KiB (0%)
Title : SDH
Language : English
Default : No
Forced : No

Text #6
ID : 12
Format : UTF-8
Codec ID : S_TEXT/UTF8
Codec ID/Info : UTF-8 Plain Text
Duration : 2 h 0 min
Bit rate : 51 b/s
Count of elements : 1157
Stream size : 45.5 KiB (0%)
Title : SDH-Colored
Language : English
Default : No
Forced : No

Menu
00:00:00.000 : en:Chapter 01
00:08:46.860 : en:Chapter 02
00:14:06.763 : en:Chapter 03
00:22:40.401 : en:Chapter 04
00:31:26.301 : en:Chapter 05
00:37:51.311 : en:Chapter 06
00:47:43.319 : en:Chapter 07
00:57:09.176 : en:Chapter 08
01:02:56.439 : en:Chapter 09
01:14:27.671 : en:Chapter 10
01:20:36.665 : en:Chapter 11
01:28:48.365 : en:Chapter 12
01:33:51.793 : en:Chapter 13
01:41:31.794 : en:Chapter 14
01:53:44.651 : en:Chapter 15
01:59:51.434 : en:Chapter 16

pb.wtf



Скачать Джон Уик 3 через торрент https://b.radikal.ru/b13/1909/1c/6e9f9d614517.jpg Скачать, смотреть онлайн Джон Уик 3 бесплантно в хорошем качестве Описание: Суперкиллер Джон Уик после нарушения кодекса тайной гильдии ассасинов получает статус изгоя - экскомьюникадо. За его голову ... 10 10 6
Торрент: Зарегистрирован [2019-09-05 11:48] · скачан: 103 раз
Статус: √ проверено
Размер: 63.11 GB
Как cкачать? Как скачать Джон Уик 3 через торрент | UTorrent

% Раздел Тема Автор DL S | L
Фильмы с авторской озвучкой [ 2.17 GB ] Джон Уик 3: Парабеллум - Готовься к войне / John Wick: Chapter 3 - Parabellum [2019 BDRip] [AVO] killermax2013 Скачать
1 | 0
Фильмы 2019-2020 [DVDrip, WEB-DLRip, HDrip] (DUB, MVO) [ 2.12 GB ] Джон Уик 3 / John Wick: Chapter 3 - Parabellum [2019 BDRip] - Twi7ter Скачать
12 | 0
Фильмы 2019-2020 [DVDrip, WEB-DLRip, HDrip] (DUB, MVO) [ 1.46 GB ] Джон Уик 3 / John Wick: Chapter 3 - Parabellum [2019 BDRip] - Twi7ter Скачать
17 | 0
Фильмы [HD 720p, 1080p] (Хороший звук DUB, MVO) [ 7.38 GB ] Джон Уик 3 / John Wick: Chapter 3 - Parabellum [2019 BDRip 720p] Dub AVO MVO Sub [Rus] - ExKinoRay Enigma2010 Скачать
5 | 0
Ultra HD (UHD: 2K, 4K, 8K) — видео сверхвысокой чёткости [ 37.44 GB ] Джон Уик 3 / John Wick: Chapter 3 - Parabellum [2019 UHD BDRip 2160p] [SDR] + MVO + AVO sheker187 Скачать
2 | 0
Ultra HD (UHD: 2K, 4K, 8K) — видео сверхвысокой чёткости [ 65.77 GB ] Джон Уик 3 / John Wick: Chapter 3 - Parabellum [2019 UHD BDRemux 2160p] [Dolby Vision TV] DUB bober100 Скачать
1 | 0
Ultra HD (UHD: 2K, 4K, 8K) — видео сверхвысокой чёткости [ 87.1 GB ] Джон Уик 3 / John Wick: Chapter 3 - Parabellum [2019 UHD Blu-ray 2160p] [DV] DUB sheker187 Скачать
1 | 0

28-11-2019 20:33  

Отключить вcю реклaмy на сайте

    Дорогой пользователь! Огромная просьба, поблагодарите релизера, оцените раздачу и оставьте свои комментарий, если Вы скачали Джон Уик 3 через торрент бесплатно!
    Комментировать посты могут только пользователи прошедшие не сложную регистрацию
    Показать сообщения:    

    Джон Уик 3 через торрент
    Скачать бесплатно Джон Уик 3
    Джон Уик 3 скачать торрент
    Джон Уик 3 смотреть онлайн
    Cкачать фильм Джон Уик 3 бесплатно
    Джон Уик 3 скачать торрент в хорошем качестве
    Джон Уик 3 смотреть онлайн бесплатно в хорошем качестве


    Вы не можете начинать темы
    Вы не можете отвечать на сообщения
    Вы не можете редактировать свои сообщения
    Вы не можете удалять свои сообщения
    Вы не можете голосовать в опросах
    Вы не можете прикреплять файлы к сообщениям
    Вы можете скачивать файлы