Всегда рабочее зеркало без VPN и Proxy просто перед .vidak.icu напиши любое слово или цифру, Пример http://2zyu.vidak.icu

MVO

2 сезон

2 сезон

1

1 сезон

iTunes

2 сезон

13

1 сезон

Распродажа

pack

Рекомендуем

Пиратка

30

ВАЖНО

RePack

MK11

RePack

jed

RePack

fifa19

RePack

RDR2

RePack

NEED FOR SPEED™ PAYBACK

Кинопоиск HD

6 сезон

 Острые козырьки 6 сезон

Все сериалы

все сериалы на PB.wtf

RePack

FAR CRY 5

Anonymous, нам критически не хватает 5601 руб. на оплату серверов и переферии за Апрель, помоги нам пожалуйста, вся надежда только на тебя. В благодарность мы отключим тебе всю рекламу на сайте!

×
  
Magnet ссылка

Джонни Мнемоник / Johnny Mnemonic (Роберт Лонго) [1995, Фантастика, боевик, BD Remux 1080p] [JPN Transfer] DVO+MVO+AVO pb.wtf

Джонни Мнемоник через торрент pb.wtf

Размер: 25.57 GB | Добавлен: 2 года 8 мес. назад | Торрент скачан:12 раз
Смотреть онлайн Джонни Мнемоник | Скачать    Ребята, помогите собрать деньги на оплату серверов!!!

05-09-2019 14:45 Джонни Мнемоник Скачать торрент  

Джонни Мнемоник / Johnny Mnemonic
Год выпуска: 1995
Страна: США, Канада
Жанр: Фантастика, боевик
Продолжительность: 01:36:40
Перевод: профессиональный (двухголосый), профессиональный (многоголосый), авторский (одноголосый)
Субтитры: русские (full), английские (full)

Режиссер: Роберт Лонго

rating

В ролях: Киану Ривз, Дина Мейер, Айс-Ти, Такеши Китано, Деннис Акаяма, Дольф Лундгрен, Генри Роллинз, Барбара Зукова, Удо Кир, Трейси Туид

Описание: В насквозь кибернетизированном будущем самый ценный товар - информация, доставляемая курьерами в самом надежном месте - в их собственном мозгу. Для того, чтобы преуспеть в этом бизнесе, Джонни «стер» воспоминания детства и расширил память сверхсовременных компьютерных приспособлений. Но и этого оказалось мало для информации, которую он взялся доставить. Если ее вовремя не сгрузить, то Джонни погибнет. Ставки велики, и информацию из головы (можно и с головой, но без Джонни) желает получить вездесущая японская мафия, подключающая к столь тонкому делу проповедника...

Качество: BD Remux 1080p | JPN Transfer
Формат: MKV

Видео: MPEG-4 AVC Video / 33202 kbps / 1920x1080 / 23.976 fps
Аудио#1: Russian: Dolby Digital Audio / 5.1 / 448 kbps - Двухголосый (EA Cinema)
Аудио#2: Russian: Dolby Digital Audio / 5.1 / 448 kbps - Многоголосый
Аудио#3: Russian: DTS-HD Master Audio / 5.1 / 2119 kbps - Авторский (Д. Есарев)
Аудио#4: English: Dolby TrueHD Audio / 5.1 / 1584 kbps - Оригинал
скриншот  скриншот  скриншот  скриншот  

Format : Matroska
Format version : Version 4 / Version 2
File size : 25.6 GiB
Duration : 1 h 36 min
Overall bit rate mode : Variable
Overall bit rate : 37.9 Mb/s
Movie name : Джонни Мнемоник / Johnny Mnemonic (1995) BDRemux 1080p | JPN Transfer | =Ved-Uk=
Encoded date : UTC 2019-04-27 16:29:42
Writing application : mkvmerge v22.0.0 ('At The End Of The World') 64-bit
Writing library : libebml v1.3.5 + libmatroska v1.4.8

Video
ID : 1
Format : AVC
Format/Info : Advanced Video Codec
Format profile : High@L4.1
Format settings, CABAC : Yes
Format settings, RefFrames : 2 frames
Codec ID : V_MPEG4/ISO/AVC
Duration : 1 h 36 min
Bit rate mode : Variable
Bit rate : 33.2 Mb/s
Width : 1 920 pixels
Height : 1 080 pixels
Display aspect ratio : 16:9
Frame rate mode : Constant
Frame rate : 23.976 (24000/1001) FPS
Color space : YUV
Chroma subsampling : 4:2:0
Bit depth : 8 bits
Scan type : Progressive
Bits/(Pixel*Frame) : 0.668
Stream size : 22.4 GiB (88%)
Title : Джонни Мнемоник / Johnny Mnemonic (1995)
Language : English
Default : Yes
Forced : No

Audio #1
ID : 2
Format : AC-3
Format/Info : Audio Coding 3
Format settings, Endianness : Big
Codec ID : A_AC3
Duration : 1 h 36 min
Bit rate mode : Constant
Bit rate : 448 kb/s
Channel(s) : 6 channels
Channel positions : Front: L C R, Side: L R, LFE
Sampling rate : 48.0 kHz
Frame rate : 31.250 FPS (1536 SPF)
Bit depth : 16 bits
Compression mode : Lossy
Stream size : 310 MiB (1%)
Title : Двухголосый (EA Cinema)
Language : Russian
Service kind : Complete Main
Default : Yes
Forced : No

Audio #2
ID : 3
Format : AC-3
Format/Info : Audio Coding 3
Format settings, Endianness : Big
Codec ID : A_AC3
Duration : 1 h 36 min
Bit rate mode : Constant
Bit rate : 448 kb/s
Channel(s) : 6 channels
Channel positions : Front: L C R, Side: L R, LFE
Sampling rate : 48.0 kHz
Frame rate : 31.250 FPS (1536 SPF)
Bit depth : 16 bits
Compression mode : Lossy
Stream size : 310 MiB (1%)
Title : Многоголосый
Language : Russian
Service kind : Complete Main
Default : No
Forced : No

Audio #3
ID : 4
Format : DTS
Format/Info : Digital Theater Systems
Format profile : MA / Core
Mode : 16
Format settings, Endianness : Big
Codec ID : A_DTS
Duration : 1 h 36 min
Bit rate mode : Variable / Constant
Bit rate : 2 119 kb/s / 1 509 kb/s
Channel(s) : 6 channels
Channel positions : Front: L C R, Side: L R, LFE
Sampling rate : 48.0 kHz
Frame rate : 93.750 FPS (512 SPF)
Bit depth : 16 bits
Compression mode : Lossless / Lossy
Stream size : 1.43 GiB (6%)
Title : Авторский (Д. Есарев)
Language : Russian
Default : No
Forced : No

Audio #4
ID : 5
Format : TrueHD
Codec ID : A_TRUEHD
Duration : 1 h 36 min
Bit rate mode : Variable
Bit rate : 1 584 kb/s
Maximum bit rate : 3 168 kb/s
Channel(s) : 6 channels
Channel positions : Front: L C R, Side: L R, LFE
Sampling rate : 48.0 kHz
Frame rate : 1 200.000 FPS (40 SPF)
Compression mode : Lossless
Stream size : 1.07 GiB (4%)
Title : Оригинальный
Language : English
Default : No
Forced : No

Text #1
ID : 6
Format : UTF-8
Codec ID : S_TEXT/UTF8
Codec ID/Info : UTF-8 Plain Text
Duration : 1 h 32 min
Bit rate : 78 b/s
Count of elements : 861
Stream size : 53.1 KiB (0%)
Title : Full
Language : Russian
Default : No
Forced : No

Text #2
ID : 7
Format : UTF-8
Codec ID : S_TEXT/UTF8
Codec ID/Info : UTF-8 Plain Text
Duration : 1 h 29 min
Bit rate : 38 b/s
Count of elements : 839
Stream size : 25.1 KiB (0%)
Title : Full
Language : English
Default : No
Forced : No

Menu
00:00:00.000 : :Chapter 01
00:06:55.206 : :Chapter 02
00:15:55.454 : :Chapter 03
00:22:11.913 : :Chapter 04
00:33:15.493 : :Chapter 05
00:37:56.273 : :Chapter 06
00:46:44.968 : :Chapter 07
00:54:26.930 : :Chapter 08
01:01:41.364 : :Chapter 09
01:08:22.555 : :Chapter 10
01:16:36.216 : :Chapter 11
01:23:23.206 : :Chapter 12

pb.wtf



Скачать Джонни Мнемоник через торрент http://i91.fastpic.ru/big/2017/0305/75/7f87ca8ac45649a0972804fe16996775.png Скачать, смотреть онлайн Джонни Мнемоник бесплантно в хорошем качестве Описание: В насквозь кибернетизированном будущем самый ценный товар - информация, доставляемая курьерами в самом надежном месте - в их ... 10 10 4
Торрент: Зарегистрирован [2019-09-05 14:45] · скачан: 12 раз
Статус: √ проверено
Размер: 25.57 GB
Как cкачать? Как скачать Джонни Мнемоник через торрент | UTorrent

% Раздел Тема Автор DL S | L
T Фильмы [HD 720p, 1080p] (Хороший звук DUB, MVO) [ 8.7 GB ] Джонни Мнемоник / Johnny Mnemonic [1995 BDRip 1080p] 2xMVO DVO AVO Леонид Ильич Скачать
1 | 0

28-11-2019 20:33  

Отключить всю рекламу на сайте

    Дорогой пользователь! Огромная просьба, поблагодарите релизера, оцените раздачу и оставьте свои комментарий, если Вы скачали Джонни Мнемоник через торрент бесплатно!
    Комментировать посты могут только пользователи прошедшие не сложную регистрацию
    Показать сообщения:    

    Джонни Мнемоник через торрент
    Скачать бесплатно Джонни Мнемоник
    Джонни Мнемоник скачать торрент
    Джонни Мнемоник смотреть онлайн
    Cкачать фильм Джонни Мнемоник бесплатно
    Джонни Мнемоник скачать торрент в хорошем качестве
    Джонни Мнемоник смотреть онлайн бесплатно в хорошем качестве


    Вы не можете начинать темы
    Вы не можете отвечать на сообщения
    Вы не можете редактировать свои сообщения
    Вы не можете удалять свои сообщения
    Вы не можете голосовать в опросах
    Вы не можете прикреплять файлы к сообщениям
    Вы можете скачивать файлы