Всегда рабочее зеркало без VPN и Proxy просто перед .vidak.icu напиши любое слово или цифру, Пример http://4qpg.vidak.icu

MVO

MVO

1 сезон

1

1 сезон

iTunes

1 сезон

13

1 сезон

Deluxe

pack

Рекомендуем

Repack

30

ВАЖНО

RePack

MK11

RePack

jed

RePack

fifa19

RePack

RDR2

RePack

NEED FOR SPEED™ PAYBACK

Кинопоиск HD

6 сезон

 Острые козырьки 6 сезон

Все сериалы

все сериалы на PB.wtf

RePack

FAR CRY 5
  
Magnet ссылка

Тайная жизнь домашних животных 2 / The Secret Life of Pets 2 (Крис Рено, Джонатан дель Валь) [2019 г., Мультфильм, комедия, приключения, семейный, HDRip] [Дубляж iTunes] - ExKinoRay pb.wtf

Тайная жизнь домашних животных 2 через торрент pb.wtf

Раздают: 1 [ 0 KB/s ]
Размер: 745 MB | Добавлен: 2 года 11 мес. назад | Торрент скачан:399 раз
Смотреть онлайн Тайная жизнь домашних животных 2 | Скачать    Ребята, помогите собрать деньги на оплату серверов!!!

05-09-2019 15:36 Тайная жизнь домашних животных 2 Скачать торрент  

Тайная жизнь домашних животных 2
The Secret Life of Pets 2
Год выпуска: 2019
Страна: США, Франция, Япония
Жанр: Мультфильм, комедия, приключения, семейный
Продолжительность: 01:26:04
Перевод: Дубляж / iTunes
Субтитры: Русские (форс)

Режиссер: Крис Рено, Джонатан дель Валь

Премьера в мире: 24 мая 2019

rating

В ролях: Пэттон Освальт, Кевин Харт, Харрисон Форд, Эрик Стоунстрит, Дженни Слейт, Тиффани Хэддиш, Лэйк Белл, Дэна Карви, Бобби Мойнахан, Хэннибал Бёресс

Описание: Почему человек так долго спит утром? Чем вкусно пахнет? Дай мне, дай, дай, дай! Как заставить человека чесать за ушком весь день?...

Качество: HDRip
Формат: AVI
Видео кодек: XviD
Аудио кодек: MP3
Видео: 656x352 (1.85:1), 23.976 fps, XviD build 73 ~1073 kbps avg, 0.19 bit/pixel
Аудио#1: 48 kHz, MPEG Layer 3, 2 ch, ~128.00 kbps avg
Релиз от:

General
Complete name : D:\Тайная жизнь домашних животных 2.(RUS).HDRip by ExKinoRay & Shkiper.avi
Format : AVI
Format/Info : Audio Video Interleave
File size : 745 MiB
Duration : 1 h 26 min
Overall bit rate : 1 210 kb/s
Writing application : VirtualDubMod 1.5.10.3 | www.virtualdub-fr.org || (build 2550/release)
Writing library : VirtualDubMod build 2550/release

Video
ID : 0
Format : MPEG-4 Visual
Format profile : Advanced [email protected]
Format settings : BVOP1 / Custom Matrix
Format settings, BVOP : 1
Format settings, QPel : No
Format settings, GMC : No warppoints
Format settings, Matrix : Custom
Codec ID : XVID
Codec ID/Hint : XviD
Duration : 1 h 26 min
Bit rate : 1 073 kb/s
Width : 656 pixels
Height : 352 pixels
Display aspect ratio : 1.85:1
Frame rate : 23.976 (24000/1001) FPS
Color space : YUV
Chroma subsampling : 4:2:0
Bit depth : 8 bits
Scan type : Progressive
Compression mode : Lossy
Bits/(Pixel*Frame) : 0.194
Stream size : 660 MiB (89%)
Writing library : XviD 73

Audio
ID : 1
Format : MPEG Audio
Format version : Version 1
Format profile : Layer 3
Codec ID : 55
Codec ID/Hint : MP3
Duration : 1 h 26 min
Bit rate mode : Constant
Bit rate : 128 kb/s
Channel(s) : 2 channels
Sampling rate : 48.0 kHz
Frame rate : 41.667 FPS (1152 SPF)
Compression mode : Lossy
Stream size : 78.8 MiB (11%)
Alignment : Aligned on interleaves
Interleave, duration : 42 ms (1.00 video frame)
Interleave, preload duratio : 504 ms
Writing library : LAME3.99r
Encoding settings : -m s -V 4 -q 2 -lowpass 17 -b 128

pb.wtf



Скачать Тайная жизнь домашних животных 2 через торрент https://img16.lostpic.net/2019/09/05/2d2fc4e20702b3231cb017242035dde0.jpg Скачать, смотреть онлайн Тайная жизнь домашних животных 2 бесплантно в хорошем качестве Описание: Почему человек так долго спит утром? Чем вкусно пахнет? Дай мне, дай, дай, дай! Как заставить человека чесать за ушком весь ... 10 10 5
Торрент: Зарегистрирован [2019-09-05 15:36] · скачан: 399 раз
Статус: √ проверено
Размер: 745 MB
Как cкачать? Как скачать Тайная жизнь домашних животных 2 через торрент | UTorrent

28-11-2019 20:33  

Отключить вcю реклaмy на сайте

05-09-2019 19:21 Тайная жизнь домашних животных 2 Скачать торрент  

Топик был перенесен из форума Фильмы 2019 [DVDrip, WEB-DLRip, HDrip] (DUB, MVO) в форум Иностранные мультфильмы


bober100pb.wtf



    Дорогой пользователь! Огромная просьба, поблагодарите релизера, оцените раздачу и оставьте свои комментарий, если Вы скачали Тайная жизнь домашних животных 2 через торрент бесплатно!
    Комментировать посты могут только пользователи прошедшие не сложную регистрацию
    Показать сообщения:    

    Тайная жизнь домашних животных 2 через торрент
    Скачать бесплатно Тайная жизнь домашних животных 2
    Тайная жизнь домашних животных 2 скачать торрент
    Тайная жизнь домашних животных 2 смотреть онлайн
    Cкачать фильм Тайная жизнь домашних животных 2 бесплатно
    Тайная жизнь домашних животных 2 скачать торрент в хорошем качестве
    Тайная жизнь домашних животных 2 смотреть онлайн бесплатно в хорошем качестве


    Вы не можете начинать темы
    Вы не можете отвечать на сообщения
    Вы не можете редактировать свои сообщения
    Вы не можете удалять свои сообщения
    Вы не можете голосовать в опросах
    Вы не можете прикреплять файлы к сообщениям
    Вы можете скачивать файлы