Всегда рабочее зеркало без VPN и Proxy просто перед .vidak.icu напиши любое слово или цифру, Пример http://kv0g.vidak.icu

Лицензия

MVO

1 сезон

1

1 сезон

iTunes

1 сезон

13

1 сезон

Deluxe

pack

Рекомендуем

Repack

30

ВАЖНО

RePack

MK11

RePack

jed

RePack

fifa19

RePack

RDR2

RePack

NEED FOR SPEED™ PAYBACK

Кинопоиск HD

6 сезон

 Острые козырьки 6 сезон

Все сериалы

все сериалы на PB.wtf

RePack

FAR CRY 5
  
Magnet ссылка

Джон Уик 3 / John Wick: Chapter 3 - Parabellum (Чад Стахелски) [2019, боевик, триллер, криминал, UHD BDRemux 2160p] [Dolby Vision TV] DUB (rus,ukr) [iTunes] pb.wtf

Джон Уик 3 через торрент pb.wtf

Качают: 1 [ 0 KB/s ]
Размер: 65.77 GB | Добавлен: 2 года 11 мес. назад | Торрент скачан:93 раза
Смотреть онлайн Джон Уик 3 | Скачать    Ребята, помогите собрать деньги на оплату серверов!!!

05-09-2019 20:09 Джон Уик 3 Скачать торрент  

Джон Уик 3 / John Wick: Chapter 3 - Parabellum
Год выпуска: 2019
Страна: США
Жанр: боевик, триллер, криминал
Продолжительность: 02:10:45
Перевод: Дублированный | iTunes
Субтитры: Русские, английские, украинские (форс.)

Режиссер: Чад Стахелски

rating

В ролях:

Киану Ривз (John Wick), Холли Берри (Sofia), Иэн МакШейн (Winston), Лоренс Фишбёрн (Bowery King), Марк Дакаскос (Zero), Азия Кейт Диллон (The Adjudicator), Лэнс Реддик (Charon), Тобиаш Сигал (Earl), Анжелика Хьюстон (The Director), Саид Тагмауи (The Elder), Джером Флинн (Berrada), Рэндолл Дак Ким (Doctor)
Описание: Суперкиллер Джон Уик после нарушения кодекса тайной гильдии ассасинов получает статус изгоя - экскомьюникадо. За его голову назначена цена в 14 миллионов долларов, и армия самых жестоких профессиональных убийц со всего мира открывает на него кровавую охоту.

Качество: UHD BDRemux 2160p | Dolby Vision TV
Формат: MP4

Видео: HEVC/H.265 HDR, 3840x2160, (16:9), 63.2 Mbps, 23.976 fps
Аудио#1: AC-3, 48.0 kHz, 6 ch, 384 kb/s, CBR (Russian)
Аудио#2: AC-3, 48.0 kHz, 6 ch, 640 kb/s, CBR (English)
Аудио#3: AC-3, 48.0 kHz, 2 ch, 192 kb/s, CBR (Ukrainian)
Субтитры внешние (в отдельной папке) т.к. встроенный плеер видит только одни субтитры - "нужные" необходимо скопировать и положить рядом с видеофайлом (при необходимости переименовать (обозвать также как видеофайл))
Данный вид релизов (контейнер MP4) предназначен для встроенного в ТВ (соответственно, с поддержкой DV) плеер.
Т.Е. Можно использовать как USB flash/HDD, так и DLNA / Plex - подобные сервисы/программы. дополнительный-внешний плеер не обязателен.

Внимание!
На моделях LG 2016 возможны сюрпризы "через раз", 2017-2018 должно идти без сюрпризов )
скриншот  скриншот  скриншот  скриншот  

General
Complete name : John.Wick.Chapter.3.Parabellum.2019.UHD.BDREMUX.2160p.DV.DL.IVA(RUS.UKR.ENG).ExKinoRay.mp4
Format : MPEG-4
Format profile : Base Media / Version 2
Codec ID : mp42 (mp42/isom/hev1/dby1)
File size : 65.8 GiB
Duration : 2 h 10 min
Overall bit rate : 72.0 Mb/s
Movie name : John Wick 3: Parabellum UHD BDREMUX 2160p
Encoded date : UTC 2019-09-05 18:05:48
Tagged date : UTC 2019-09-05 18:26:52
Writing application : IVA.ExKinoRay
Cover : Yes

Video #1
ID : 1
Format : HEVC
Format/Info : High Efficiency Video Coding
Format profile : Main [email protected]@High
HDR format : SMPTE ST 2086, HDR10 compatible
Codec ID : hev1
Codec ID/Info : High Efficiency Video Coding
Duration : 2 h 10 min
Bit rate : 63.2 Mb/s
Width : 3 840 pixels
Height : 2 160 pixels
Display aspect ratio : 16:9
Frame rate mode : Constant
Frame rate : 23.976 (24000/1001) FPS
Color space : YUV
Chroma subsampling : 4:2:0 (Type 2)
Bit depth : 10 bits
Bits/(Pixel*Frame) : 0.318
Stream size : 57.7 GiB (88%)
Encoded date : UTC 2019-09-05 18:05:48
Tagged date : UTC 2019-09-05 18:26:45
Color range : Limited
Color primaries : BT.2020
Transfer characteristics : PQ
Matrix coefficients : BT.2020 non-constant
Mastering display color primaries : Display P3
Mastering display luminance : min: 0.0010 cd/m2, max: 1000 cd/m2
Maximum Content Light Level : 1000 cd/m2
Maximum Frame-Average Light Level : 358 cd/m2
Codec configuration box : hvcC

Video #2
ID : 2
Format : HEVC
Format/Info : High Efficiency Video Coding
Format profile : Main [email protected]@High
HDR format : Dolby Vision, Version 1.0, dvhe.07.06, EL+RPU / SMPTE ST 2086, HDR10 compatible
Codec ID : dvhe
Codec ID/Info : High Efficiency Video Coding with Dolby Vision
Duration : 2 h 10 min
Bit rate : 7 627 kb/s
Width : 1 920 pixels
Height : 1 080 pixels
Display aspect ratio : 16:9
Frame rate mode : Constant
Frame rate : 23.976 (24000/1001) FPS
Color space : YUV
Chroma subsampling : 4:2:0 (Type 2)
Bit depth : 10 bits
Bits/(Pixel*Frame) : 0.153
Stream size : 6.97 GiB (11%)
Encoded date : UTC 2019-09-05 18:05:48
Tagged date : UTC 2019-09-05 18:26:45
Color range : Limited
Color primaries : BT.2020
Transfer characteristics : PQ
Matrix coefficients : BT.2020 non-constant
Mastering display color primaries : Display P3
Mastering display luminance : min: 0.0010 cd/m2, max: 1000 cd/m2
Codec configuration box : hvcC+dvcC

Audio #1
ID : 3
Format : AC-3
Format/Info : Audio Coding 3
Commercial name : Dolby Digital
Codec ID : ac-3
Duration : 2 h 10 min
Bit rate mode : Constant
Bit rate : 384 kb/s
Channel(s) : 6 channels
Channel layout : L R C LFE Ls Rs
Sampling rate : 48.0 kHz
Frame rate : 31.250 FPS (1536 SPF)
Bit depth : 16 bits
Compression mode : Lossy
Stream size : 359 MiB (1%)
Title : Russian (ac3 5.1)
Language : Russian
Service kind : Complete Main
Default : Yes
Alternate group : 1
Encoded date : UTC 2019-09-05 18:05:48
Tagged date : UTC 2019-09-05 18:26:45

Audio #2
ID : 4
Format : AC-3
Format/Info : Audio Coding 3
Commercial name : Dolby Digital
Codec ID : ac-3
Duration : 2 h 10 min
Bit rate mode : Constant
Bit rate : 640 kb/s
Channel(s) : 6 channels
Channel layout : L R C LFE Ls Rs
Sampling rate : 48.0 kHz
Frame rate : 31.250 FPS (1536 SPF)
Bit depth : 16 bits
Compression mode : Lossy
Stream size : 599 MiB (1%)
Title : English (ac3 5.1)
Language : English
Service kind : Complete Main
Default : No
Alternate group : 1
Encoded date : UTC 2019-09-05 18:05:48
Tagged date : UTC 2019-09-05 18:26:45

Audio #3
ID : 5
Format : AC-3
Format/Info : Audio Coding 3
Commercial name : Dolby Digital
Codec ID : ac-3
Duration : 2 h 10 min
Bit rate mode : Constant
Bit rate : 192 kb/s
Channel(s) : 2 channels
Channel layout : L R
Sampling rate : 48.0 kHz
Frame rate : 31.250 FPS (1536 SPF)
Bit depth : 16 bits
Compression mode : Lossy
Stream size : 180 MiB (0%)
Title : Ukrainian (ac3 2.0)
Language : Ukrainian
Service kind : Complete Main
Default : No
Alternate group : 1
Encoded date : UTC 2019-09-05 18:05:48
Tagged date : UTC 2019-09-05 18:26:45

pb.wtf



Скачать Джон Уик 3 через торрент https://b.radikal.ru/b13/1909/1c/6e9f9d614517.jpg Скачать, смотреть онлайн Джон Уик 3 бесплантно в хорошем качестве Описание: Суперкиллер Джон Уик после нарушения кодекса тайной гильдии ассасинов получает статус изгоя - экскомьюникадо. За его голову ... 9.4 10 5
Торрент: Зарегистрирован [2019-09-05 20:09] · скачан: 93 раз
Статус: √ проверено
Размер: 65.77 GB
Как cкачать? Как скачать Джон Уик 3 через торрент | UTorrent

% Раздел Тема Автор DL S | L
Фильмы с авторской озвучкой [ 2.17 GB ] Джон Уик 3: Парабеллум - Готовься к войне / John Wick: Chapter 3 - Parabellum [2019 BDRip] [AVO] killermax2013 Скачать
2 | 0
Фильмы 2019-2020 [DVDrip, WEB-DLRip, HDrip] (DUB, MVO) [ 2.12 GB ] Джон Уик 3 / John Wick: Chapter 3 - Parabellum [2019 BDRip] - Twi7ter Скачать
31 | 0
Фильмы 2019-2020 [DVDrip, WEB-DLRip, HDrip] (DUB, MVO) [ 1.46 GB ] Джон Уик 3 / John Wick: Chapter 3 - Parabellum [2019 BDRip] - Twi7ter Скачать
29 | 0
Фильмы [HD 720p, 1080p] (Хороший звук DUB, MVO) [ 7.38 GB ] Джон Уик 3 / John Wick: Chapter 3 - Parabellum [2019 BDRip 720p] Dub AVO MVO Sub [Rus] - ExKinoRay Enigma2010 Скачать
7 | 1
Ultra HD (UHD: 2K, 4K, 8K) — видео сверхвысокой чёткости [ 37.44 GB ] Джон Уик 3 / John Wick: Chapter 3 - Parabellum [2019 UHD BDRip 2160p] [SDR] + MVO + AVO sheker187 Скачать
2 | 1
Ultra HD (UHD: 2K, 4K, 8K) — видео сверхвысокой чёткости [ 63.11 GB ] Джон Уик 3 / John Wick: Chapter 3 - Parabellum [2019 UHD BDRemux 2160p] +MVO [HDRezka Studio] +AVO [Д. Есарев] bober100 Скачать
1 | 0
Ultra HD (UHD: 2K, 4K, 8K) — видео сверхвысокой чёткости [ 87.1 GB ] Джон Уик 3 / John Wick: Chapter 3 - Parabellum [2019 UHD Blu-ray 2160p] [DV] DUB sheker187 Скачать
1 | 0

28-11-2019 20:33  

Отключить вcю реклaмy на сайте

    Дорогой пользователь! Огромная просьба, поблагодарите релизера, оцените раздачу и оставьте свои комментарий, если Вы скачали Джон Уик 3 через торрент бесплатно!
    Комментировать посты могут только пользователи прошедшие не сложную регистрацию
    Показать сообщения:    

    Джон Уик 3 через торрент
    Скачать бесплатно Джон Уик 3
    Джон Уик 3 скачать торрент
    Джон Уик 3 смотреть онлайн
    Cкачать фильм Джон Уик 3 бесплатно
    Джон Уик 3 скачать торрент в хорошем качестве
    Джон Уик 3 смотреть онлайн бесплатно в хорошем качестве


    Вы не можете начинать темы
    Вы не можете отвечать на сообщения
    Вы не можете редактировать свои сообщения
    Вы не можете удалять свои сообщения
    Вы не можете голосовать в опросах
    Вы не можете прикреплять файлы к сообщениям
    Вы можете скачивать файлы