новый адрес
Ссылка на приватное зеркало всего за 1$. Внимание количество ограничено!!!

iTunes

1+1

iTunes

мы

WEB-DL

1

iTunes

Чернобыль

iTunes

Ральф против интернета

Лицензия

ПШазам

Лицензия

Оно 2

Лицензия

30
pack

Вам бонус

ВАЖНО

!!Акция!!

Alien_RageХит недели

RePack

Resident Evil 21

ИГРА 18+

pack

RePack

jed

!!Акция!!

Alien_Rage

RePack

fifa19

RePack

Assassins Creed: Odyssey

RePack

NEED FOR SPEED™ PAYBACK

3 сезон

9 сезон

Бесстыжие 9 сезон

Все сериалы

все сериалы на PB.wtf

RePack

FAR CRY 5
Ребята, катастрофически не хватает 1900р. для оплаты серверов за Октябрь (всвязи с блокировками трафик упал в 3 раза), 1-2р., выручайте.
  

Камилла Клодель / Camille Claudel (Брюно Нюйттен) [1988, драма, мелодрама, биография, история, BDRip 720p by msltel] MVO, AVO pb.wtf

Камилла Клодель через торрент pb.wtf

Размер: 6.23 GB | Добавлен: 3 мес. 6 д. назад | Торрент скачан:15 раз
Скачать  

06-09-2019 08:38 Камилла Клодель Скачать торрент  

Название: Камилла Клодель
Оригинальное название: Camille Claudel
Год выпуска: 1988
Страна: Франция
Жанр: драма, мелодрама, биография, история
Продолжительность: 02:54:30
Перевод: профессиональный многоголосый, авторский

Режиссер: Бруно Нюйтен
В ролях: Изабель Аджани, Жерар Депардьё, Лоран Гревиль, Ален Кюни, Мадлен Робинсон, Кэтрин Бурмен, Даниэль Лебрун, Орель Доазан, Мадлен Мари, Максим Леру

О фильме: Судьба одарила Камиллу талантом, умом, красотой и нежной душой. В 19 лет она стала ученицей и возлюбленной великого Родена. Но расплатой за недолгое счастье стали одно за другим обрушившиеся на эту незаурядную женщину проблемы... Фильм по книге Рейн-Мари Пари.



Качество: BDRip 720p
Формат: MKV
Видео: MPEG-4 AVC, 4530 Kбит/с, 1280x544, 24 Кадр/с
Аудио 1: русский, AC3, 192 kbps, 2 ch, 48 kHz [закадровый многоголосый]
Аудио 2: русский, AC3, 192 kbps, 2 ch, 48 kHz [авторский, Сергей Визгунов]
Аудио 3: французский, AC3, 192 kbps, 2 ch, 48 kHz [оригинал]
Главы/чаптеры
Общее
Уникальный идентификатор : 236930028977060129421163949459891965762 (0xB23F1052204B31E18B925027E00E4F42)
Полное имя : D:\Video\Камилла Клодель.1988.BDRip 720p by msltel.mkv
Формат : Matroska
Версия формата : Version 4
Размер файла : 6,23 Гбайт
Продолжительность : 2 ч. 54 м.
Общий поток : 5108 Кбит/сек
Название фильма : Rip by msltel
Дата кодирования : UTC 2019-09-06 04:51:50
Программа кодирования : mkvmerge v8.2.0 ('World of Adventure') 64bit
Библиотека кодирования : libebml v1.3.1 + libmatroska v1.4.2

Видео
Идентификатор : 1
Формат : AVC
Формат/Информация : Advanced Video Codec
Профиль формата : High@L4.1
Настройки формата : CABAC / 9 Ref Frames
Параметр CABAC формата : Да
Параметр RefFrames формата : 9 кадров
Идентификатор кодека : V_MPEG4/ISO/AVC
Продолжительность : 2 ч. 54 м.
Битрейт : 4530 Кбит/сек
Ширина : 1280 пикселей
Высота : 544 пикселя
Соотношение сторон : 2,35:1
Режим частоты кадров : Постоянный
Частота кадров : 24,000 кадра/сек
Цветовое пространство : YUV
Субдискретизация насыщенности : 4:2:0
Битовая глубина : 8 бит
Тип развёртки : Прогрессивная
Бит/(Пиксели*Кадры) : 0.271
Размер потока : 5,52 Гбайт (89%)
Библиотека кодирования : x264 core 157 r2935 545de2f
Настройки программы : cabac=1 / ref=9 / deblock=1:-2:-2 / analyse=0x3:0x113 / me=umh / subme=11 / psy=1 / psy_rd=1.00:0.15 / mixed_ref=1 / me_range=32 / chroma_me=1 / trellis=2 / 8x8dct=1 / cqm=0 / deadzone=21,11 / fast_pskip=0 / chroma_qp_offset=-3 / threads=6 / lookahead_threads=1 / sliced_threads=0 / nr=0 / decimate=1 / interlaced=0 / bluray_compat=0 / constrained_intra=0 / bframes=9 / b_pyramid=2 / b_adapt=2 / b_bias=0 / direct=1 / weightb=1 / open_gop=0 / weightp=2 / keyint=230 / keyint_min=23 / scenecut=40 / intra_refresh=0 / rc_lookahead=40 / rc=crf / mbtree=1 / crf=17.5 / qcomp=0.60 / qpmin=0 / qpmax=69 / qpstep=4 / vbv_maxrate=50000 / vbv_bufsize=62500 / crf_max=0.0 / nal_hrd=none / filler=0 / ip_ratio=1.40 / aq=1:1.00
Язык : French
Default : Да
Forced : Нет

Аудио #1
Идентификатор : 2
Формат : AC-3
Формат/Информация : Audio Coding 3
Коммерческое название : Dolby Digital
Идентификатор кодека : A_AC3
Продолжительность : 2 ч. 54 м.
Вид битрейта : Постоянный
Битрейт : 192 Кбит/сек
Каналы : 2 канала
ChannelLayout : L R
Частота : 48,0 КГц
Частота кадров : 31,250 кадров/сек (1536 SPF)
Битовая глубина : 16 бит
Метод сжатия : С потерями
Размер потока : 240 Мбайт (4%)
Заголовок : MVO
Язык : Russian
ServiceKind/String : Complete Main
Default : Да
Forced : Нет

Аудио #2
Идентификатор : 3
Формат : AC-3
Формат/Информация : Audio Coding 3
Коммерческое название : Dolby Digital
Идентификатор кодека : A_AC3
Продолжительность : 2 ч. 54 м.
Вид битрейта : Постоянный
Битрейт : 192 Кбит/сек
Каналы : 2 канала
ChannelLayout : L R
Частота : 48,0 КГц
Частота кадров : 31,250 кадров/сек (1536 SPF)
Битовая глубина : 16 бит
Метод сжатия : С потерями
Размер потока : 240 Мбайт (4%)
Заголовок : Сергей Визгунов
Язык : Russian
ServiceKind/String : Complete Main
Default : Нет
Forced : Нет

Аудио #3
Идентификатор : 4
Формат : AC-3
Формат/Информация : Audio Coding 3
Коммерческое название : Dolby Digital
Идентификатор кодека : A_AC3
Продолжительность : 2 ч. 54 м.
Вид битрейта : Постоянный
Битрейт : 192 Кбит/сек
Каналы : 2 канала
ChannelLayout : L R
Частота : 48,0 КГц
Частота кадров : 31,250 кадров/сек (1536 SPF)
Битовая глубина : 16 бит
Метод сжатия : С потерями
Размер потока : 240 Мбайт (4%)
Заголовок : original
Язык : French
ServiceKind/String : Complete Main
Default : Нет
Forced : Нет

Меню
00:00:00.000 : en:Chapter 1
00:13:28.625 : en:Chapter 2
00:24:13.125 : en:Chapter 3
00:31:28.666 : en:Chapter 4
00:42:29.958 : en:Chapter 5
00:51:07.833 : en:Chapter 6
01:05:11.000 : en:Chapter 7
01:22:35.291 : en:Chapter 8
01:34:13.333 : en:Chapter 9
01:53:59.416 : en:Chapter 10
02:05:08.083 : en:Chapter 11
02:20:14.000 : en:Chapter 12
02:31:41.083 : en:Chapter 13
02:40:19.333 : en:Chapter 14
02:51:20.583 : en:Chapter 15
pb.wtf



Скачать Камилла Клодель через торрент https://c.radikal.ru/c26/1909/74/03f95425a2f8.jpg Скачать фильм Камилла Клодель через торрент бесплантно в хорошем качестве О фильме: Судьба одарила Камиллу талантом, умом, красотой и нежной душой. В 19 лет она стала ученицей и возлюбленной великого Родена. Но ... 10 10 2
Торрент: Зарегистрирован [2019-09-06 08:38] · скачан: 15 раз
Статус: √ проверено
Размер: 6.23 GB
Как cкачать? Как скачать Камилла Клодель через торрент | qTorrent

% Раздел Тема Автор DL S | L
Арт-хаус и авторское кино [ 17.1 GB ] Камилла Клодель / Camille Claudel [1988 биография история BDRip 1080p by msltel] MVO AVO msltel Скачать
1 | 0

28-11-2019 20:33  

Отключить всю рекламу на сайте


11-09-2019 06:57 Камилла Клодель Скачать торрент  

Топик был перенесен из форума Фильмы [HD 720p, 1080p] (Хороший звук DUB, MVO) в форум Арт-хаус и авторское кино


bober100pb.wtf



    Дорогой пользователь! Огромная просьба, поблагодарите релизера, оцените раздачу и оставьте свои комментарий, если Вы скачали Камилла Клодель через торрент бесплатно! Внесите свою лепту в развитие PiratBit!
    Комментировать посты могут только пользователи прошедшие не сложную регистрацию
    Показать сообщения:    

    Камилла Клодель через торрент
    Скачать бесплатно Камилла Клодель
    Камилла Клодель скачать торрент
    Камилла Клодель смотреть онлайн
    Cкачать фильм Камилла Клодель бесплатно
    Камилла Клодель скачать торрент в хорошем качестве
    Камилла Клодель смотреть онлайн бесплатно в хорошем качестве


    Вы не можете начинать темы
    Вы не можете отвечать на сообщения
    Вы не можете редактировать свои сообщения
    Вы не можете удалять свои сообщения
    Вы не можете голосовать в опросах
    Вы не можете прикреплять файлы к сообщениям
    Вы можете скачивать файлы