2 сезон

iTunes

MVO

1

2 сезон

iTunes

iTunes

1 сезон

RePack

30

Ultimate

ВАЖНО

ИГРА 18+

pack

RePack

MK11
pack

Легкие деньги

RePack

jed

RePack

fifa19

RePack

RDR2

RePack

NEED FOR SPEED™ PAYBACK

4 сезон

9 сезон

Бесстыжие 9 сезон

Все сериалы

все сериалы на PB.wtf

RePack

FAR CRY 5

Anonymous, добрый день, мы не успеваем собрать деньги на оплату серверов за декабрь и январь, помогите нам пожалуйста в это трудное время. В качестве благодарности мы отключим Вам всю рекламу на сайте (укажите свой ник в строку Ваше имя)!

×
  
Magnet ссылка

Люди Икс: Тёмный Феникс / Dark Phoenix (Саймон Кинберг) [2019, фантастика, боевик, приключения, BDRip 720p, 60 fps] DUB (rus, ukr) [Лицензия] pb.wtf

Люди Икс: Тёмный Феникс через торрент pb.wtf

Раздают: 1 [ 0 KB/s ]
Размер: 10.07 GB | Добавлен: 1 год 4 мес. назад | Торрент скачан:551 раз
Скачать  

06-09-2019 14:39 Люди Икс: Тёмный Феникс Скачать торрент  

Люди Икс: Тёмный Феникс / Dark Phoenix«A Phoenix will rise. The X-Men will fall»
Год выпуска: 2019
Страна: США
Жанр: Фантастика, боевик, приключения
Продолжительность: 01:53:55
Перевод: Дублированный | Лицензия
Субтитры: Русские, украинские, английские
В ролях:

Джеймс МакЭвой (Professor Charles Xavier), Майкл Фассбендер (Erik Lehnsherr / Magneto), Дженнифер Лоуренс (Raven / Mystique), Николас Холт (Hank McCoy / Beast), Софи Тёрнер (Jean Grey / Phoenix), Тай Шеридан (Scott Summers / Cyclops), Александра Шипп (Ororo Munroe / Storm), Эван Питерс (Peter Maximoff / Quicksilver), Коди Смит-Макфи (Kurt Wagner / Nightcrawler), Джессика Честейн (Vuk), Скотт Шеперд (John Grey), Ато Эссонда (Jones)
Описание:
История Джин Грей, которая разворачивается в тот момент, когда героиня превращается в культового Тёмного Феникса. Во время опасной для жизни спасательной миссии в космосе девушка оказывается поражена таинственной космической силой, которая превращает её в одного из самых могущественных мутантов. В борьбе с этой всё более изменчивой мощью и со своими собственными демонами Джин выходит из-под контроля: раскалывает семью Людей Икс и угрожает уничтожить всю нашу планету.
Рейтинг:

MPAA: PG-13 - Детям до 13 лет просмотр не желателен
Качество: BDRip 720p
Формат: MKV
Видео: AVC | 1280 x 536 | 59.940 fps | 10.0 Мбит/сек
Аудио #1: DTS | 5.1 | 48 kHz | 755 Кбит/сек | 24 bit | Дубляж (Лицензия) | RUS |
Аудио #2: AC-3 | 5.1 | 48 kHz | 448 Кбит/сек | 16 bit | Дубляж (Лицензия) | UKR |
Аудио #3: DTS-HD MA | 7.1 | 48 kHz | 1509 Кбит/сек | 24 bit | Оригинал | ENG |
Навигация по главам: Есть

General
Unique ID : 267643028530082469072017858255012889499 (0xC95A2C1C328514357A25E7A7D39A039B)
Complete name : D:\2019 Люди Икс - Тёмный Феникс BDRip 720p 60 fps.mkv
Format : Matroska
Format version : Version 4 / Version 2
File size : 10.1 GiB
Duration : 1h 53mn
Overall bit rate : 12.7 Mbps
Movie name : Люди Икс: Тёмный Феникс / Dark Phoenix
Encoded date : UTC 2019-09-02 20:48:41
Writing application : mkvmerge v22.0.0 ('At The End Of The World') 64-bit
Writing library : libebml v1.3.5 + libmatroska v1.4.8
DURATION : 01:52:38.252000000
NUMBER_OF_FRAMES : 20
NUMBER_OF_BYTES : 153677
_STATISTICS_WRITING_APP : mkvmerge v22.0.0 ('At The End Of The World') 64-bit
_STATISTICS_WRITING_DATE_UTC : 2019-09-02 20:48:41
_STATISTICS_TAGS : BPS DURATION NUMBER_OF_FRAMES NUMBER_OF_BYTES
Attachment : Yes
Video #1
ID : 1
Format : AVC
Format/Info : Advanced Video Codec
Format profile : High@L4.1
Format settings, CABAC : Yes
Format settings, ReFrames : 8 frames
Codec ID : V_MPEG4/ISO/AVC
Duration : 1h 53mn
Bit rate : 10 000 Kbps
Width : 1 280 pixels
Height : 536 pixels
Display aspect ratio : 2.40:1
Frame rate : 59.940 fps
Color space : YUV
Chroma subsampling : 4:2:0
Bit depth : 8 bits
Scan type : Progressive
Bits/(Pixel*Frame) : 0.243
Stream size : 7.71 GiB (77%)
Writing library : x264 core 146 r2538 121396c
Encoding settings : cabac=1 / ref=8 / deblock=1:-3:-3 / analyse=0x3:0x113 / me=umh / subme=9 / psy=1 / psy_rd=1.00:0.25 / mixed_ref=1 / me_range=32 / chroma_me=1 / trellis=2 / 8x8dct=1 / cqm=0 / deadzone=6,6 / fast_pskip=1 / chroma_qp_offset=-4 / threads=12 / lookahead_threads=2 / sliced_threads=0 / nr=0 / decimate=0 / interlaced=0 / bluray_compat=0 / constrained_intra=0 / bframes=3 / b_pyramid=2 / b_adapt=2 / b_bias=0 / direct=3 / weightb=1 / open_gop=0 / weightp=2 / keyint=599 / keyint_min=60 / scenecut=40 / intra_refresh=0 / rc_lookahead=60 / rc=2pass / mbtree=1 / bitrate=10000 / ratetol=1.0 / qcomp=0.80 / qpmin=0 / qpmax=69 / qpstep=4 / cplxblur=20.0 / qblur=0.5 / vbv_maxrate=50000 / vbv_bufsize=62500 / nal_hrd=none / filler=0 / ip_ratio=1.10 / aq=1:0.50
Language : English
Default : Yes
Forced : No
DURATION : 01:53:56.347000000
NUMBER_OF_FRAMES : 409771
NUMBER_OF_BYTES : 8456326935
_STATISTICS_WRITING_APP : mkvmerge v22.0.0 ('At The End Of The World') 64-bit
_STATISTICS_WRITING_DATE_UTC : 2019-09-02 20:48:41
_STATISTICS_TAGS : BPS DURATION NUMBER_OF_FRAMES NUMBER_OF_BYTES
Audio #2
ID : 2
Format : DTS
Format/Info : Digital Theater Systems
Codec ID : A_DTS
Duration : 1h 53mn
Bit rate mode : Constant
Bit rate : 755 Kbps
Channel(s) : 6 channels
Channel positions : Front: L C R, Side: L R, LFE
Sampling rate : 48.0 KHz
Bit depth : 24 bits
Compression mode : Lossy
Stream size : 615 MiB (6%)
Title : Дубляж
Language : Russian
Default : Yes
Forced : No
Audio #3
ID : 3
Format : AC-3
Format/Info : Audio Coding 3
Mode extension : CM (complete main)
Format settings, Endianness : Big
Codec ID : A_AC3
Duration : 1h 53mn
Bit rate mode : Constant
Bit rate : 448 Kbps
Channel(s) : 6 channels
Channel positions : Front: L C R, Side: L R, LFE
Sampling rate : 48.0 KHz
Bit depth : 16 bits
Compression mode : Lossy
Stream size : 365 MiB (4%)
Title : Дубляж
Language : Ukrainian
Default : No
Forced : No
Audio #4
ID : 4
Format : DTS
Format/Info : Digital Theater Systems
Codec ID : A_DTS
Duration : 1h 53mn
Bit rate mode : Constant
Bit rate : 1 510 Kbps
Channel(s) : 6 channels
Channel positions : Front: L C R, Side: L R, LFE
Sampling rate : 48.0 KHz
Bit depth : 24 bits
Compression mode : Lossy
Stream size : 1.20 GiB (12%)
Title : Оригинал
Language : English
Default : No
Forced : No
Text #5
ID : 5
Format : PGS
Muxing mode : zlib
Codec ID : S_HDMV/PGS
Codec ID/Info : The same subtitle format used on BDs/HD-DVDs
Title : Full-length
Language : Russian
Default : No
Forced : No
Text #6
ID : 6
Format : PGS
Muxing mode : zlib
Codec ID : S_HDMV/PGS
Codec ID/Info : The same subtitle format used on BDs/HD-DVDs
Title : Full-length
Language : Ukrainian
Default : No
Forced : No
Text #7
ID : 7
Format : PGS
Muxing mode : zlib
Codec ID : S_HDMV/PGS
Codec ID/Info : The same subtitle format used on BDs/HD-DVDs
Title : SDH
Language : English
Default : No
Forced : No
Text #8
ID : 8
Format : PGS
Muxing mode : zlib
Codec ID : S_HDMV/PGS
Codec ID/Info : The same subtitle format used on BDs/HD-DVDs
Title : Forced
Language : Russian
Default : Yes
Forced : No
Text #9
ID : 9
Format : PGS
Muxing mode : zlib
Codec ID : S_HDMV/PGS
Codec ID/Info : The same subtitle format used on BDs/HD-DVDs
Title : Forced
Language : Ukrainian
Default : No
Forced : No
Menu
00:00:00.000 : en:00:00:00.000
00:03:28.875 : en:00:03:28.875
00:07:34.621 : en:00:07:34.621
00:11:42.201 : en:00:11:42.201
00:15:44.110 : en:00:15:44.110
00:18:37.408 : en:00:18:37.408
00:25:24.481 : en:00:25:24.481
00:31:40.357 : en:00:31:40.357
00:34:19.307 : en:00:34:19.307
00:40:07.447 : en:00:40:07.447
00:44:36.090 : en:00:44:36.090
00:49:07.778 : en:00:49:07.778
00:55:38.168 : en:00:55:38.168
00:58:57.409 : en:00:58:57.409
01:02:57.190 : en:01:02:57.190
01:10:40.111 : en:01:10:40.111
01:13:42.418 : en:01:13:42.418
01:19:33.477 : en:01:19:33.477
01:22:35.701 : en:01:22:35.701
01:25:49.061 : en:01:25:49.061
01:30:38.350 : en:01:30:38.350
01:32:48.188 : en:01:32:48.188
01:37:59.624 : en:01:37:59.624
01:45:01.045 : en:01:45:01.045
pb.wtf



Скачать Люди Икс: Тёмный Феникс через торрент https://b.radikal.ru/b06/1909/00/9ad1b9d5534f.png Скачать фильм Люди Икс: Тёмный Феникс через торрент бесплантно в хорошем качестве Описание: История Джин Грей, которая разворачивается в тот момент, когда героиня превращается в культового Тёмного Феникса. Во время ... 8.9 10 18
Info! Золотая раздача, скачанное не засчитывается.
Торрент: Зарегистрирован [2019-09-06 14:39] · скачан: 551 раз
Статус: √ проверено
Размер: 10.07 GB
Как cкачать? Как скачать Люди Икс: Тёмный Феникс через торрент | UTorrent

% Раздел Тема Автор DL S | L
Фильмы (HD 720p, 1080p) (48-60 fps) [ 3.61 GB ] Люди Икс: Тёмный Феникс / Dark Phoenix [2019 BDRip 720p / 60 FPS BD CEE] от R.G. HD-Films slaventi-69 Скачать
2 | 1
Фильмы [HD 720p, 1080p] (Хороший звук DUB, MVO) [ 4.31 GB ] Люди Икс: Тёмный Феникс / Dark Phoenix [2019 BDRip 720p] - ExKinoRay Enigma2010 Скачать
19 | 0
Фильмы 2019-2020 [DVDrip, WEB-DLRip, HDrip] (DUB, MVO) [ 1.46 GB ] Люди Икс: Тёмный Феникс / Dark Phoenix [2019 BDRip] - [] Twi7ter Скачать
24 | 0
Фильмы [HD 720p, 1080p] (Хороший звук DUB, MVO) [ 13.16 GB ] Люди Икс: Тёмный Феникс / Dark Phoenix [2019 BDRip 1080p] DUB [] bober100 Скачать
3 | 0
Фильмы 2019-2020 [DVDrip, WEB-DLRip, HDrip] (DUB, MVO) [ 2.18 GB ] Люди Икс: Тёмный Феникс / Dark Phoenix [2019 BDRip] - [] Twi7ter Скачать
25 | 0
Фильмы 2019-2020 [DVDrip, WEB-DLRip, HDrip] (DUB, MVO) [ 746 MB ] Люди Икс: Тёмный Феникс / Dark Phoenix [2019 HDRip] DUB [] surikmas Скачать
1 | 0
Фильмы 2019-2020 [DVDrip, WEB-DLRip, HDrip] (DUB, MVO) [ 754 MB ] Люди Икс: Тёмный Феникс / Dark Phoenix [2019 BDRip] DUB [] bober100 Скачать
2 | 0

28-11-2019 20:33  

Отключить всю рекламу на сайте

    Дорогой пользователь! Огромная просьба, поблагодарите релизера, оцените раздачу и оставьте свои комментарий, если Вы скачали Люди Икс: Тёмный Феникс через торрент бесплатно! Внесите свою лепту в развитие PiratBit!
    Комментировать посты могут только пользователи прошедшие не сложную регистрацию
    Показать сообщения:    

    Люди Икс: Тёмный Феникс через торрент
    Скачать бесплатно Люди Икс: Тёмный Феникс
    Люди Икс: Тёмный Феникс скачать торрент
    Люди Икс: Тёмный Феникс смотреть онлайн
    Cкачать фильм Люди Икс: Тёмный Феникс бесплатно
    Люди Икс: Тёмный Феникс скачать торрент в хорошем качестве
    Люди Икс: Тёмный Феникс смотреть онлайн бесплатно в хорошем качестве


    Вы не можете начинать темы
    Вы не можете отвечать на сообщения
    Вы не можете редактировать свои сообщения
    Вы не можете удалять свои сообщения
    Вы не можете голосовать в опросах
    Вы не можете прикреплять файлы к сообщениям
    Вы можете скачивать файлы