Всегда рабочее зеркало без VPN и Proxy просто перед .vidak.icu напиши любое слово или цифру, Пример http://llpl.vidak.icu

MVO

2 сезон

1 сезон

1

1 сезон

iTunes

2 сезон

13

1 сезон

Распродажа

pack

Рекомендуем

Пиратка

30

ВАЖНО

RePack

MK11

RePack

jed

RePack

fifa19

RePack

RDR2

RePack

NEED FOR SPEED™ PAYBACK

Кинопоиск HD

6 сезон

 Острые козырьки 6 сезон

Все сериалы

все сериалы на PB.wtf

RePack

FAR CRY 5

Anonymous, нам критически не хватает 5601 руб. на оплату серверов и переферии за Апрель, помоги нам пожалуйста, вся надежда только на тебя. В благодарность мы отключим тебе всю рекламу на сайте!

×
  
Magnet ссылка

Джон Уик (Трилогия) / John Wick: Тrilogy (Чад Стахелски) [2014-2019, боевик, триллер, криминал, UHD BDRemux 2160p] DUB [iTunes] pb.wtf

Джон Уик через торрент pb.wtf

Раздают: 1 [ 0 KB/s ]
Размер: 176.63 GB | Добавлен: 2 года 8 мес. назад | Торрент скачан:100 раз
Смотреть онлайн Джон Уик | Скачать    Ребята, помогите собрать деньги на оплату серверов!!!

07-09-2019 09:01 Джон Уик Скачать торрент  

Джон Уик (Трилогия) / John Wick: Тrilogy


Год выпуска: 2014-2019
Жанр: Боевик, триллер, криминал
Выпущено: США, Китай, 87Eleven, Lionsgate, Summit Entertainment, Thunder Road
Режиссер: Чад Стахелски, Дэвид Литч
В ролях:
Киану Ривз, Иэн МакШейн, Микаэл Нюквист, Алфи Аллен, Лэнс Реддик, Уиллем Дефо, Джон Легуизамо, Дин Уинтерс, Эдрианн Палики, Омер Барнеа, Тоби Леонард Мур, Дэниэл Бернхард, Бриджет Мойнэхэн, Риккардо Скамарчо, Руби Роуз, Коммон, Франко Неро, Клаудия Джерини, Лоуренс Фишборн, Холли Берри, Марк Дакаскос, Азия Кейт Диллон, Тобиаш Сигал

Джон Уик / John Wick«Его лучше не трогать»
Год выпуска: 2014
Страна: США, Китай
Жанр: боевик, триллер, криминал
Продолжительность: 01:41:11
Перевод: Дублированный
Субтитры: Русские, английские
Режиссер: Чад Стахелски , Дэвид Литч
В ролях:

Киану Ривз (John Wick), Микаэл Нюквист (Viggo Tarasov), Алфи Аллен (Iosef Tarasov), Уиллем Дефо (Marcus), Дин Уинтерс (Avi), Эдрианн Палики (Ms. Perkins), Омер Барнеа (Gregori), Тоби Леонард Мур (Victor), Дэниэл Бернхард (Kirill), Бриджет Мойнэхэн (Helen), Джон Легуизамо (Aurelio), Иэн МакШейн (Winston)
Описание:
Джон Уик, на первый взгляд, - самый обычный среднестатистический американец, который ведет спокойную мирную жизнь. Однако мало кто знает, что он был наёмным убийцей, причём одним из лучших профессионалов в своём деле.
Рейтинг:

MPAA: R - Лицам до 17 лет обязательно присутствие взрослого
Качество: UHD BDRemux 2160p
Формат: MKV
Видео: HEVC, HDR, 3840x2160, 58 Mbps
Аудио 1: AC3, 6 ch, 384 Kbps [Русский]
Аудио 2: DTS-HD MA, 8 ch, 4012 Kbps [Английский]
Навигация по главам: есть

Общее
Уникальный идентификатор : 205426755244168340219820225733835583550 (0x9A8BC10193940ED2BD135BBEF3F3703E)
Полное имя : K:\John.Wick.Trilogy.4К\John.Wick.2014.UHD.BDRemux.2160p.HEVC.HDR.mkv
Формат : Matroska
Версия формата : Version 4
Размер файла : 44,1 Гбайт
Продолжительность : 1 ч. 41 м.
Режим общего битрейта : Переменный
Общий поток : 62,4 Мбит/сек
Название фильма : John.Wick.2014.UHD.BDRemux.2160p.HEVC.HDR
Дата кодирования : UTC 2019-05-23 11:59:17
Программа кодирования : mkvmerge v8.6.1 ('Flying') 64bit
Библиотека кодирования : libebml v1.3.3 + libmatroska v1.4.4

Видео
Идентификатор : 1
Формат : HEVC
Формат/Информация : High Efficiency Video Coding
Коммерческое название : HDR10
Профиль формата : Main 10@L5.1@High
Идентификатор кодека : V_MPEGH/ISO/HEVC
Продолжительность : 1 ч. 41 м.
Битрейт : 58,0 Мбит/сек
Ширина : 3840 пикселей
Высота : 2160 пикселей
Соотношение сторон : 16:9
Режим частоты кадров : Постоянный
Частота кадров : 23,976 (24000/1001) кадра/сек
Цветовое пространство : YUV
Субдискретизация насыщенности : 4:2:0 (Type 2)
Битовая глубина : 10 бит
Бит/(Пиксели*Кадры) : 0.292
Размер потока : 41,0 Гбайт (93%)
Заголовок : John.Wick.2014.UHD.BDRemux.2160p.HEVC.HDR
Библиотека кодирования : ATEME Titan File 3.7.9 (4.7.9.0)
Язык : English
Default : Да
Forced : Нет
Цветовой диапазон : Limited
Основные цвета : BT.2020
Характеристики трансфера : PQ
Коэффициенты матрицы : BT.2020 non-constant
MasteringDisplay_ColorPrimaries : Display P3
MasteringDisplay_Luminance : min: 0.0000 cd/m2, max: 1000 cd/m2
MaxCLL : 1000 cd/m2
MaxFALL : 169 cd/m2

Аудио #1
Идентификатор : 2
Формат : AC-3
Формат/Информация : Audio Coding 3
Коммерческое название : Dolby Digital
Идентификатор кодека : A_AC3
Продолжительность : 1 ч. 41 м.
Вид битрейта : Постоянный
Битрейт : 384 Кбит/сек
Каналы : 6 каналов
Channel layout : L R C LFE Ls Rs
Частота : 48,0 КГц
Частота кадров : 31,250 кадров/сек (1536 SPF)
Битовая глубина : 16 бит
Метод сжатия : С потерями
Размер потока : 278 Мбайт (1%)
Заголовок : Russian, AC3, 6 ch, 384 kb/s
Язык : Russian
ServiceKind/String : Complete Main
Default : Да
Forced : Да

Аудио #2
Идентификатор : 3
Формат : DTS XLL
Формат/Информация : Digital Theater Systems
Коммерческое название : DTS-HD Master Audio
Идентификатор кодека : A_DTS
Продолжительность : 1 ч. 41 м.
Вид битрейта : Переменный
Битрейт : 4012 Кбит/сек
Каналы : 8 каналов
Channel layout : C L R LFE Lb Rb Lss Rss
Частота : 48,0 КГц
Частота кадров : 93,750 кадра/сек (512 SPF)
Битовая глубина : 24 бит
Метод сжатия : Без потерь
Размер потока : 2,84 Гбайт (6%)
Заголовок : English, DTS-HD MA, 8 ch, 4012 kb/s
Язык : English
Default : Нет
Forced : Нет

Текст #1
Идентификатор : 4
Формат : UTF-8
Идентификатор кодека : S_TEXT/UTF8
Идентификатор кодека/Информация : UTF-8 Plain Text
Продолжительность : 1 ч. 40 м.
Битрейт : 33 бит/сек
ElementCount : 550
Размер потока : 24,9 Кбайт (0%)
Заголовок : Full
Язык : Russian
Default : Нет
Forced : Нет

Текст #2
Идентификатор : 5
Формат : UTF-8
Идентификатор кодека : S_TEXT/UTF8
Идентификатор кодека/Информация : UTF-8 Plain Text
Продолжительность : 1 ч. 14 м.
Битрейт : 2 бит/сек
ElementCount : 69
Размер потока : 1,36 Кбайт (0%)
Заголовок : Forced
Язык : English
Default : Нет
Forced : Нет

Текст #3
Идентификатор : 6
Формат : UTF-8
Идентификатор кодека : S_TEXT/UTF8
Идентификатор кодека/Информация : UTF-8 Plain Text
Продолжительность : 1 ч. 33 м.
Битрейт : 23 бит/сек
ElementCount : 625
Размер потока : 16,2 Кбайт (0%)
Заголовок : Full
Язык : English
Default : Нет
Forced : Нет

Меню
00:00:00.000 : en:00:00:00.000
00:04:56.713 : en:00:04:56.713
00:12:21.074 : en:00:12:21.074
00:17:06.943 : en:00:17:06.943
00:26:24.374 : en:00:26:24.374
00:32:39.457 : en:00:32:39.457
00:36:23.807 : en:00:36:23.807
00:42:15.241 : en:00:42:15.241
00:45:32.480 : en:00:45:32.480
00:55:01.715 : en:00:55:01.715
00:59:26.772 : en:00:59:26.772
01:06:12.635 : en:01:06:12.635
01:14:15.117 : en:01:14:15.117
01:19:12.247 : en:01:19:12.247
01:27:28.994 : en:01:27:28.994
01:32:23.997 : en:01:32:23.997

Джон Уик 2 / John Wick: Chapter Two«Never stab the devil in the back»
Год выпуска: 2017
Страна: США, Гонконг
Жанр: боевик, триллер, криминал
Продолжительность: 02:02:23
Перевод: Дублированный
Субтитры: Русские, английские
Режиссер: Чад Стахелски
В ролях:

Киану Ривз, Риккардо Скамарчо, Иэн МакШейн, Руби Роуз, Коммон, Клаудия Джерини, Лэнс Реддик, Лоренс Фишбёрн, Тобиаш Сигал, Джон Легуизамо, Бриджет Мойнэхэн, Томас Садоски
Описание:
Когда бывший коллега Джона решает взять под свой контроль таинственную гильдию убийц, Уик вынужден выйти из отставки. Ведомый кровавой клятвой Джон отправляется в Рим, где ему придется сразиться с одними из самых опасных киллеров в мире.
Рейтинг:

MPAA: R - Лицам до 17 лет обязательно присутствие взрослого
Качество: UHD BDRemux 2160p
Формат: MKV
Видео: HEVC, HDR, 3840x2160, 77.9 Mbps
Аудио 1: AC3, 6 ch, 384 Kbps [Русский]
Аудио 2: DTS-HD MA, 8 ch, 4457 Kbps [Английский]
Навигация по главам: есть
Общее
Уникальный идентификатор : 170220112910213323422951344870216373675 (0x800F3385B6FBCA8AAED995D7EFDB15AB)
Полное имя : K:\John.Wick.Trilogy.4К\John.Wick.Chapter.Two.2017.UHD.BDRemux.2160p.HEVC.HDR.mkv
Формат : Matroska
Версия формата : Version 4
Размер файла : 70,8 Гбайт
Продолжительность : 2 ч. 2 м.
Режим общего битрейта : Переменный
Общий поток : 82,8 Мбит/сек
Название фильма : John.Wick.Chapter.Two.2017.UHD.BDRemux.2160p.HEVC.HDR
Дата кодирования : UTC 2019-05-23 14:47:02
Программа кодирования : mkvmerge v8.6.1 ('Flying') 64bit
Библиотека кодирования : libebml v1.3.3 + libmatroska v1.4.4

Видео
Идентификатор : 1
Формат : HEVC
Формат/Информация : High Efficiency Video Coding
Коммерческое название : HDR10
Профиль формата : Main 10@L5.1@High
Идентификатор кодека : V_MPEGH/ISO/HEVC
Продолжительность : 2 ч. 2 м.
Битрейт : 77,9 Мбит/сек
Ширина : 3840 пикселей
Высота : 2160 пикселей
Соотношение сторон : 16:9
Режим частоты кадров : Постоянный
Частота кадров : 23,976 (24000/1001) кадра/сек
Цветовое пространство : YUV
Субдискретизация насыщенности : 4:2:0 (Type 2)
Битовая глубина : 10 бит
Бит/(Пиксели*Кадры) : 0.392
Размер потока : 66,6 Гбайт (94%)
Заголовок : John.Wick.Chapter.Two.2017.UHD.BDRemux.2160p.HEVC.HDR
Библиотека кодирования : ATEME Titan File 3.7.9 (4.7.9.0)
Язык : English
Default : Да
Forced : Нет
Цветовой диапазон : Limited
Основные цвета : BT.2020
Характеристики трансфера : PQ
Коэффициенты матрицы : BT.2020 non-constant
MasteringDisplay_ColorPrimaries : Display P3
MasteringDisplay_Luminance : min: 0.0000 cd/m2, max: 1000 cd/m2
MaxCLL : 1000 cd/m2
MaxFALL : 510 cd/m2

Аудио #1
Идентификатор : 2
Формат : AC-3
Формат/Информация : Audio Coding 3
Коммерческое название : Dolby Digital
Идентификатор кодека : A_AC3
Продолжительность : 2 ч. 2 м.
Вид битрейта : Постоянный
Битрейт : 384 Кбит/сек
Каналы : 6 каналов
Channel layout : L R C LFE Ls Rs
Частота : 48,0 КГц
Частота кадров : 31,250 кадров/сек (1536 SPF)
Битовая глубина : 16 бит
Метод сжатия : С потерями
Размер потока : 336 Мбайт (0%)
Заголовок : Russian, AC3, 6 ch, 384 kb/s
Язык : Russian
ServiceKind/String : Complete Main
Default : Да
Forced : Да

Аудио #2
Идентификатор : 3
Формат : DTS XLL
Формат/Информация : Digital Theater Systems
Коммерческое название : DTS-HD Master Audio
Идентификатор кодека : A_DTS
Продолжительность : 2 ч. 2 м.
Вид битрейта : Переменный
Битрейт : 4457 Кбит/сек
Каналы : 8 каналов
Channel layout : C L R LFE Lb Rb Lss Rss
Частота : 48,0 КГц
Частота кадров : 93,750 кадра/сек (512 SPF)
Битовая глубина : 24 бит
Метод сжатия : Без потерь
Размер потока : 3,81 Гбайт (5%)
Заголовок : English, DTS-HD MA, 8 ch, 4457 kb/s
Язык : English
Default : Нет
Forced : Нет

Текст #1
Идентификатор : 4
Формат : UTF-8
Идентификатор кодека : S_TEXT/UTF8
Идентификатор кодека/Информация : UTF-8 Plain Text
Продолжительность : 1 ч. 53 м.
Битрейт : 0 бит/сек
ElementCount : 12
Размер потока : 743 байт (0%)
Заголовок : Forced
Язык : Russian
Default : Да
Forced : Да

Текст #2
Идентификатор : 5
Формат : UTF-8
Идентификатор кодека : S_TEXT/UTF8
Идентификатор кодека/Информация : UTF-8 Plain Text
Продолжительность : 1 ч. 53 м.
Битрейт : 37 бит/сек
ElementCount : 500
Размер потока : 30,9 Кбайт (0%)
Заголовок : Full
Язык : Russian
Default : Нет
Forced : Нет

Текст #3
Идентификатор : 6
Формат : UTF-8
Идентификатор кодека : S_TEXT/UTF8
Идентификатор кодека/Информация : UTF-8 Plain Text
Продолжительность : 1 ч. 49 м.
Битрейт : 21 бит/сек
ElementCount : 669
Размер потока : 17,6 Кбайт (0%)
Заголовок : Full
Язык : English
Default : Нет
Forced : Нет

Меню
00:00:00.000 : en:Chapter 1
00:06:31.682 : en:Chapter 2
00:16:57.933 : en:Chapter 3
00:26:35.594 : en:Chapter 4
00:34:38.034 : en:Chapter 5
00:42:07.816 : en:Chapter 6
00:48:07.050 : en:Chapter 7
00:56:41.648 : en:Chapter 8
01:01:42.782 : en:Chapter 9
01:10:27.681 : en:Chapter 10
01:17:15.922 : en:Chapter 11
01:24:22.640 : en:Chapter 12
01:32:11.234 : en:Chapter 13
01:40:01.328 : en:Chapter 14
01:46:34.763 : en:Chapter 15
01:54:01.042 : en:Chapter 16

Джон Уик 3 / John Wick: Chapter 3 - Parabellum««Тик-так, мистер Уик»»

Год выпуска: 2019
Страна: США
Жанр: боевик, триллер, криминал
Продолжительность: 02:10:45
Перевод: Профессиональный (дублированный) iTunes
Субтитры: Русские (перевод Enigma), английские
Режиссер: Чад Стахелски
В ролях:

Киану Ривз (John Wick), Холли Берри (Sofia), Иэн МакШейн (Winston), Лоренс Фишбёрн (Bowery King), Марк Дакаскос (Zero), Азия Кейт Диллон (The Adjudicator), Лэнс Реддик (Charon), Тобиаш Сигал (Earl), Анжелика Хьюстон (The Director), Саид Тагмауи (The Elder), Джером Флинн (Berrada), Рэндолл Дак Ким (Doctor)
Описание:
Суперкиллер Джон Уик после нарушения кодекса тайной гильдии ассасинов получает статус изгоя - экскомьюникадо. За его голову назначена цена в 14 миллионов долларов, и армия самых жестоких профессиональных убийц со всего мира открывает на него кровавую охоту.
Рейтинг:

MPAA: R - Лицам до 17 лет обязательно присутствие взрослого
Качество: UHD BDRemux 2160p
Формат: MKV
Видео: HEVC HDR, 3840x2160, 63.2 Mbps
Аудио 1: AC3, 6 ch, 384 Kbps [Русский] (iTunes)
Аудио 2: TrueHD, 8 ch, 4012 Kbps [Английский]
Навигация по главам: Есть

Общее
Уникальный идентификатор : 184890772966684741311704040715871189691 (0x8B18AAE878E10DE09704EEB56485FABB)
Полное имя : K:\John.Wick.Trilogy.4К\John.Wick.Chapter.3.Parabellum.2019.UHD.BDRemux.2160p.HEVC.HDR.mkv
Формат : Matroska
Версия формата : Version 4
Размер файла : 61,8 Гбайт
Продолжительность : 2 ч. 10 м.
Режим общего битрейта : Переменный
Общий поток : 67,6 Мбит/сек
Название фильма : John.Wick.Chapter.3.Parabellum.2019.UHD.BDRemux.2160p.HEVC.HDR
Дата кодирования : UTC 2019-09-06 09:21:59
Программа кодирования : mkvmerge v8.6.1 ('Flying') 64bit
Библиотека кодирования : libebml v1.3.3 + libmatroska v1.4.4

Видео
Идентификатор : 1
Формат : HEVC
Формат/Информация : High Efficiency Video Coding
Коммерческое название : HDR10
Профиль формата : Main 10@L5.1@High
Идентификатор кодека : V_MPEGH/ISO/HEVC
Продолжительность : 2 ч. 10 м.
Битрейт : 63,2 Мбит/сек
Ширина : 3840 пикселей
Высота : 2160 пикселей
Соотношение сторон : 16:9
Режим частоты кадров : Постоянный
Частота кадров : 23,976 (24000/1001) кадра/сек
Цветовое пространство : YUV
Субдискретизация насыщенности : 4:2:0 (Type 2)
Битовая глубина : 10 бит
Бит/(Пиксели*Кадры) : 0.318
Размер потока : 57,7 Гбайт (93%)
Заголовок : John.Wick.Chapter.3.Parabellum.2019.UHD.BDRemux.2160p.HEVC.HDR
Язык : English
Default : Да
Forced : Нет
Цветовой диапазон : Limited
Основные цвета : BT.2020
Характеристики трансфера : PQ
Коэффициенты матрицы : BT.2020 non-constant
MasteringDisplay_ColorPrimaries : Display P3
MasteringDisplay_Luminance : min: 0.0010 cd/m2, max: 1000 cd/m2
MaxCLL : 1000 cd/m2
MaxFALL : 358 cd/m2

Аудио #1
Идентификатор : 2
Формат : AC-3
Формат/Информация : Audio Coding 3
Коммерческое название : Dolby Digital
Идентификатор кодека : A_AC3
Продолжительность : 2 ч. 10 м.
Вид битрейта : Постоянный
Битрейт : 384 Кбит/сек
Каналы : 6 каналов
Channel layout : L R C LFE Ls Rs
Частота : 48,0 КГц
Частота кадров : 31,250 кадров/сек (1536 SPF)
Битовая глубина : 16 бит
Метод сжатия : С потерями
Размер потока : 359 Мбайт (1%)
Заголовок : Russian, AC3, 6 ch, 384 kb/s
Язык : Russian
ServiceKind/String : Complete Main
Default : Да
Forced : Да

Аудио #2
Идентификатор : 3
Формат : MLP FBA 16-ch
Формат/Информация : Meridian Lossless Packing FBA with 16-channel presentation
Коммерческое название : Dolby TrueHD with Dolby Atmos
Идентификатор кодека : A_TRUEHD
Продолжительность : 2 ч. 10 м.
Вид битрейта : Переменный
Битрейт : 4012 Кбит/сек
Максимальный битрейт : 6327 Кбит/сек
Каналы : 8 каналов
Channel layout : L R C LFE Ls Rs Lb Rb
Частота : 48,0 КГц
Частота кадров : 1200,000 кадров/сек (40 SPF)
Метод сжатия : Без потерь
Размер потока : 3,66 Гбайт (6%)
Заголовок : English, TrueHD, 8 ch, 4012 kb/s
Язык : English
Default : Нет
Forced : Нет
Number of dynamic objects : 15
Bed channel count : 1 канал
Bed channel configuration : LFE

Текст #1
Идентификатор : 4
Формат : UTF-8
Идентификатор кодека : S_TEXT/UTF8
Идентификатор кодека/Информация : UTF-8 Plain Text
Продолжительность : 2 ч. 2 м.
Битрейт : 1 бит/сек
ElementCount : 32
Размер потока : 1,03 Кбайт (0%)
Заголовок : Forced
Язык : Russian
Default : Да
Forced : Да

Текст #2
Идентификатор : 5
Формат : UTF-8
Идентификатор кодека : S_TEXT/UTF8
Идентификатор кодека/Информация : UTF-8 Plain Text
Продолжительность : 2 ч. 1 м.
Битрейт : 38 бит/сек
ElementCount : 761
Размер потока : 34,6 Кбайт (0%)
Заголовок : Full
Язык : Russian
Default : Нет
Forced : Нет

Текст #3
Идентификатор : 6
Формат : UTF-8
Идентификатор кодека : S_TEXT/UTF8
Идентификатор кодека/Информация : UTF-8 Plain Text
Продолжительность : 1 ч. 59 м.
Битрейт : 24 бит/сек
ElementCount : 764
Размер потока : 21,3 Кбайт (0%)
Заголовок : Full
Язык : English
Default : Нет
Forced : Нет

Меню
00:00:00.000 : en:Chapter 01
00:08:46.860 : en:Chapter 02
00:14:06.763 : en:Chapter 03
00:22:40.401 : en:Chapter 04
00:31:26.301 : en:Chapter 05
00:37:51.311 : en:Chapter 06
00:47:43.319 : en:Chapter 07
00:57:09.176 : en:Chapter 08
01:02:56.439 : en:Chapter 09
01:14:27.671 : en:Chapter 10
01:20:36.665 : en:Chapter 11
01:28:48.365 : en:Chapter 12
01:33:51.793 : en:Chapter 13
01:41:31.794 : en:Chapter 14
01:53:44.651 : en:Chapter 15
01:59:51.434 : en:Chapter 16
pb.wtf



Скачать Джон Уик через торрент https://c.radikal.ru/c06/1909/85/accba707c8ca.png Скачать, смотреть онлайн Джон Уик бесплантно в хорошем качестве Описание: Джон Уик, на первый взгляд, - самый обычный среднестатистический американец, который ведет спокойную мирную жизнь. Однако мало ... 10 10 5
Info! Золотая раздача, скачанное не засчитывается.
Торрент: Зарегистрирован [2019-09-07 09:01] · скачан: 100 раз
Статус: √ проверено
Размер: 176.63 GB
Как cкачать? Как скачать Джон Уик через торрент | UTorrent

% Раздел Тема Автор DL S | L
Сборники и Сиквелы (48-60 fps) [ 11.92 GB ] Джон Уик: Трилогия / John Wick: Тrilogy [2014-2019 BDRip - HEVC 1080p 10 bit 60 FPS DUB] dd2d3 Скачать
3 | 1
Фильмы с авторской озвучкой [ 1.47 GB ] Джон Уик / John Wick [2014 BDRip] AVO [Дмитрий «Goblin» Пучков] Twi7ter Скачать
18 | 1
Фильмы с авторской озвучкой [ 1.46 GB ] Джон Уик / John Wick [2014 BDRip] [AVO] killermax2013 Скачать
1 | 0
Фильмы с авторской озвучкой [ 2.17 GB ] Джон Уик 3: Парабеллум - Готовься к войне / John Wick: Chapter 3 - Parabellum [2019 BDRip] [AVO] killermax2013 Скачать
1 | 0
Фильмы 2019-2020 [DVDrip, WEB-DLRip, HDrip] (DUB, MVO) [ 2.12 GB ] Джон Уик 3 / John Wick: Chapter 3 - Parabellum [2019 BDRip] - Twi7ter Скачать
15 | 0
Фильмы 2019-2020 [DVDrip, WEB-DLRip, HDrip] (DUB, MVO) [ 1.46 GB ] Джон Уик 3 / John Wick: Chapter 3 - Parabellum [2019 BDRip] - Twi7ter Скачать
22 | 0
Фильмы [HD 720p, 1080p] (Хороший звук DUB, MVO) [ 7.38 GB ] Джон Уик 3 / John Wick: Chapter 3 - Parabellum [2019 BDRip 720p] Dub AVO MVO Sub [Rus] - ExKinoRay Enigma2010 Скачать
7 | 0

28-11-2019 20:33  

Отключить всю рекламу на сайте

    Дорогой пользователь! Огромная просьба, поблагодарите релизера, оцените раздачу и оставьте свои комментарий, если Вы скачали Джон Уик через торрент бесплатно!
    Комментировать посты могут только пользователи прошедшие не сложную регистрацию
    Показать сообщения:    

    Джон Уик через торрент
    Скачать бесплатно Джон Уик
    Джон Уик скачать торрент
    Джон Уик смотреть онлайн
    Cкачать фильм Джон Уик бесплатно
    Джон Уик скачать торрент в хорошем качестве
    Джон Уик смотреть онлайн бесплатно в хорошем качестве


    Вы не можете начинать темы
    Вы не можете отвечать на сообщения
    Вы не можете редактировать свои сообщения
    Вы не можете удалять свои сообщения
    Вы не можете голосовать в опросах
    Вы не можете прикреплять файлы к сообщениям
    Вы можете скачивать файлы