Ссылка на приватное зеркало нашего сайта всего за 1$. Внимание количество ограничено!!!

2 сезон

iTunes

1 сезон

1

iTunes

iTunes

iTunes

1 сезон

RePack

30

ИГРА 18+

pack

ВАЖНО

!!Акция!!

Alien_RageХит недели

RePack

MK11
pack

Забери бонус

RePack

jed

!!Акция!!

Alien_Rage

RePack

fifa19

RePack

Assassins Creed: Odyssey

RePack

NEED FOR SPEED™ PAYBACK

4 сезон

9 сезон

Бесстыжие 9 сезон

Все сериалы

все сериалы на PB.wtf

RePack

FAR CRY 5
  

Призраки Замоскворечья / Серии: 1-4 из 4 (Александр Олейников, Игорь Багатурия) [2019, Детектив, WEB-DLRip] pb.wtf

Призраки Замоскворечья через торрент pb.wtf

Раздают: 1 [ 0 KB/s ]
Размер: 2.28 GB | Добавлен: 1 год 1 мес. назад | Торрент скачан:121 раз
Скачать  

07-09-2019 14:32 Призраки Замоскворечья Скачать торрент  

Призраки Замоскворечья
Год выпуска: 2019
Страна: Россия
Жанр: Детектив
Продолжительность: ~ 00:44:00
Перевод: Не требуется
Субтитры: отсутствуют

Режиссер: Александр Олейников, Игорь Багатурия

В ролях: Александра Богданова, Елена Проклова, Андрей Ургант, Алексей Барабаш, Татьяна Агафонова, Людмила Чурсина, Тамара Сёмина, Евгений Миллер, Владимир Фекленко, Леонид Громов, Екатерина Семёнова, Александр Мохов, Лаура Кеосаян, Марина Гайзидорская, Иван Агапов, Владимир Щербаков

Описание: Благополучная, размеренная жизнь замоскворецкого вип-ателье рушится в одночасье. Его хозяйка Надежда Раух оказывается втянутой в загадочную историю: из примерочной исчезает портфель важной клиентки, после чего пропадает она сама. Ввиду конфиденциальности инцидент расследует сотрудник службы безопасности Лев Астраханский. Обвинив Надежду во всех смертных грехах, он вскоре выясняет, что преступление имеет исторический шлейф…

Качество: WEB-DLRip
Формат: AVI

Видео: XviD, ~ 1600 Кбит/с, 720x400
Аудио: Русский (AC3, 2 ch, 192 Кбит/с)
скриншот  скриншот  скриншот  

Общее
Полное имя : C:\Призраки Замоскворечья.2019.WEB-DLRip.Files-x\01. Призраки Замоскворечья.2019.WEB-DLRip.Files-x.avi
Формат : AVI
Формат/Информация : Audio Video Interleave
Размер файла : 580 Мбайт
Продолжительность : 44 м. 59 с.
Общий поток : 1802 Кбит/сек
Программа кодирования : VirtualDubMod 1.5.10.3 | www.virtualdub-fr.org || (build 2550/release)
Библиотека кодирования : VirtualDubMod build 2550/release

Видео
Идентификатор : 0
Формат : MPEG-4 Visual
Профиль формата : Advanced Simple@L5
Настройки формата : BVOP1 / Custom Matrix
Параметр BVOP формата : 1
Параметр QPel формата : Нет
Параметр GMC формата : Без точки перехода
Параметр матрицы формата : Выборочная
Идентификатор кодека : XVID
Идентификатор кодека/Подсказка : XviD
Продолжительность : 44 м. 59 с.
Битрейт : 1529 Кбит/сек
Ширина : 720 пикселей
Высота : 400 пикселей
Соотношение сторон : 16:9
Частота кадров : 25,000 кадров/сек
Цветовое пространство : YUV
Субдискретизация насыщенности : 4:2:0
Битовая глубина : 8 бит
Тип развёртки : Прогрессивная
Метод сжатия : С потерями
Бит/(Пиксели*Кадры) : 0.212
Размер потока : 492 Мбайт (85%)
Библиотека кодирования : XviD 73

Аудио
Идентификатор : 1
Формат : AC-3
Формат/Информация : Audio Coding 3
Коммерческое название : Dolby Digital
Идентификатор кодека : 2000
Продолжительность : 44 м. 59 с.
Вид битрейта : Постоянный
Битрейт : 192 Кбит/сек
Каналы : 2 канала
ChannelLayout : L R
Частота : 48,0 КГц
Частота кадров : 31,250 кадров/сек (1536 SPF)
Битовая глубина : 16 бит
Метод сжатия : С потерями
Размер потока : 61,8 Мбайт (11%)
Выравнивание : Разделение по промежуткам
ServiceKind/String : Complete Main

pb.wtf



Скачать Призраки Замоскворечья через торрент https://i89.fastpic.ru/big/2019/0907/98/503ee60be57a103ceb7e5d460a816298.jpg Скачать фильм Призраки Замоскворечья через торрент бесплантно в хорошем качестве Описание: Благополучная, размеренная жизнь замоскворецкого вип-ателье рушится в одночасье. Его хозяйка Надежда Раух оказывается втянутой в ... 10 10 7
Торрент: Зарегистрирован [2019-09-07 17:34] · скачан: 121 раз
Статус: √ проверено
Размер: 2.28 GB
Как cкачать? Как скачать Призраки Замоскворечья через торрент | qTorrent

% Раздел Тема Автор DL S | L
Наши сериалы [ 2.27 GB ] Призраки Замоскворечья / Серии: 1-4 из 4 [2019 WEB-DLRip-AVC] bober100 Скачать
1 | 0
Наши сериалы [ 2.22 GB ] Призраки Замоскворечья / Серии: 1-4 из 4 [2019 экранизация SATRip-AVC] aleksan55 Скачать
1 | 0


Последний раз редактировалось: bober100 (2019-09-07 17:33), всего редактировалось 2 раз(а)

28-11-2019 20:33  

Отключить всю рекламу на сайте

07-09-2019 15:38 Призраки Замоскворечья Скачать торрент  

Фильм интересен сюжетом.Отличные актёры.Приятного просмотра ждём новых серий.pb.wtf



    Дорогой пользователь! Огромная просьба, поблагодарите релизера, оцените раздачу и оставьте свои комментарий, если Вы скачали Призраки Замоскворечья через торрент бесплатно! Внесите свою лепту в развитие PiratBit!
    Комментировать посты могут только пользователи прошедшие не сложную регистрацию
    Показать сообщения:    

    Призраки Замоскворечья через торрент
    Скачать бесплатно Призраки Замоскворечья
    Призраки Замоскворечья скачать торрент
    Призраки Замоскворечья смотреть онлайн
    Cкачать фильм Призраки Замоскворечья бесплатно
    Призраки Замоскворечья скачать торрент в хорошем качестве
    Призраки Замоскворечья смотреть онлайн бесплатно в хорошем качестве


    Вы не можете начинать темы
    Вы не можете отвечать на сообщения
    Вы не можете редактировать свои сообщения
    Вы не можете удалять свои сообщения
    Вы не можете голосовать в опросах
    Вы не можете прикреплять файлы к сообщениям
    Вы можете скачивать файлы