Ссылка на приватное зеркало нашего сайта всего за 1$. Внимание количество ограничено!!!

2 сезон

iTunes

1 сезон

1

iTunes

iTunes

iTunes

1 сезон

RePack

30

ИГРА 18+

pack

ВАЖНО

!!Акция!!

Alien_RageХит недели

RePack

MK11
pack

Забери бонус

RePack

jed

!!Акция!!

Alien_Rage

RePack

fifa19

RePack

Assassins Creed: Odyssey

RePack

NEED FOR SPEED™ PAYBACK

4 сезон

9 сезон

Бесстыжие 9 сезон

Все сериалы

все сериалы на PB.wtf

RePack

FAR CRY 5
  

Призраки Замоскворечья / Серии: 1-4 из 4 (Александр Олейников, Игорь Багатурия) [2019, Детектив, WEB-DLRip-AVC] pb.wtf

Призраки Замоскворечья через торрент pb.wtf

Размер: 2.27 GB | Добавлен: 1 год 1 мес. назад | Торрент скачан:45 раз
Скачать  

07-09-2019 14:42 Призраки Замоскворечья Скачать торрент  

Призраки Замоскворечья
Год выпуска: 2019
Страна: Россия
Жанр: Детектив
Продолжительность: ~ 00:44:00
Перевод: Не требуется
Субтитры: отсутствуют

Режиссер: Александр Олейников, Игорь Багатурия

В ролях: Александра Богданова, Елена Проклова, Андрей Ургант, Алексей Барабаш, Татьяна Агафонова, Людмила Чурсина, Тамара Сёмина, Евгений Миллер, Владимир Фекленко, Леонид Громов, Екатерина Семёнова, Александр Мохов, Лаура Кеосаян, Марина Гайзидорская, Иван Агапов, Владимир Щербаков

Описание: Благополучная, размеренная жизнь замоскворецкого вип-ателье рушится в одночасье. Его хозяйка Надежда Раух оказывается втянутой в загадочную историю: из примерочной исчезает портфель важной клиентки, после чего пропадает она сама. Ввиду конфиденциальности инцидент расследует сотрудник службы безопасности Лев Астраханский. Обвинив Надежду во всех смертных грехах, он вскоре выясняет, что преступление имеет исторический шлейф…

Качество: WEB-DLRip-AVC
Формат: MKV

Видео: 1024x576, (16:9), 25 fps, AVC MPEG-4 (x264), High@L4.1 ~ 1600 kbps , 0.109 bit/pixel
Аудио: 48 kHz, АС3, 2/0 (L,R), ~192.00 kbps avg
скриншот  скриншот  скриншот  скриншот  

Общее
Уникальный идентификатор : 251373001299412056234672901434555868627 (0xBD1CADD5A69CAFB4A986C18827F5A5D3)
Полное имя : C:\Призраки Замоскворечья.(2019).WEB-DLRip.(AVC).Files-x\01.Призраки Замоскворечья.(2019).WEB-DLRip.(AVC).by.Серый1779.Files-x.mkv
Формат : Matroska
Версия формата : Version 2
Размер файла : 577 Мбайт
Продолжительность : 43 м. 3 с.
Общий поток : 1874 Кбит/сек
Дата кодирования : UTC 2019-09-02 04:23:05
Программа кодирования : mkvmerge v7.8.0 (''River Man'') 32bit built on Apr 3 2015 12:11:22
Библиотека кодирования : libebml v1.3.1 + libmatroska v1.4.2
IsTruncated : Yes

Видео
Идентификатор : 1
Формат : AVC
Формат/Информация : Advanced Video Codec
Профиль формата : High@L4.1
Настройки формата : CABAC / 9 Ref Frames
Параметр CABAC формата : Да
Параметр RefFrames формата : 9 кадров
Идентификатор кодека : V_MPEG4/ISO/AVC
Продолжительность : 43 м. 3 с.
Битрейт : 1600 Кбит/сек
Ширина : 1024 пикселя
Высота : 576 пикселей
Соотношение сторон : 16:9
Режим частоты кадров : Постоянный
Частота кадров : 25,000 кадров/сек
Цветовое пространство : YUV
Субдискретизация насыщенности : 4:2:0
Битовая глубина : 8 бит
Тип развёртки : Прогрессивная
Бит/(Пиксели*Кадры) : 0.109
Размер потока : 506 Мбайт (88%)
Библиотека кодирования : x264 core 146 r2538 121396c
Настройки программы : cabac=1 / ref=9 / deblock=1:-2:-1 / analyse=0x3:0x133 / me=umh / subme=9 / psy=1 / psy_rd=1.00:0.15 / mixed_ref=1 / me_range=32 / chroma_me=1 / trellis=2 / 8x8dct=1 / cqm=0 / deadzone=21,11 / fast_pskip=0 / chroma_qp_offset=-3 / threads=18 / lookahead_threads=3 / sliced_threads=0 / nr=0 / decimate=1 / interlaced=0 / bluray_compat=0 / constrained_intra=0 / bframes=9 / b_pyramid=2 / b_adapt=2 / b_bias=0 / direct=1 / weightb=1 / open_gop=0 / weightp=2 / keyint=250 / keyint_min=25 / scenecut=40 / intra_refresh=0 / rc=2pass / mbtree=0 / bitrate=1600 / ratetol=1.0 / qcomp=0.60 / qpmin=0 / qpmax=69 / qpstep=4 / cplxblur=20.0 / qblur=0.5 / ip_ratio=1.40 / pb_ratio=1.30 / aq=2:1.00
Default : Да
Forced : Нет
Цветовой диапазон : Limited
Основные цвета : BT.709
Характеристики трансфера : BT.709
Коэффициенты матрицы : BT.709

Аудио
Идентификатор : 2
Формат : AC-3
Формат/Информация : Audio Coding 3
Коммерческое название : Dolby Digital
Идентификатор кодека : A_AC3
Продолжительность : 43 м. 3 с.
Вид битрейта : Постоянный
Битрейт : 192 Кбит/сек
Каналы : 2 канала
ChannelLayout : L R
Частота : 48,0 КГц
Частота кадров : 31,250 кадров/сек (1536 SPF)
Битовая глубина : 16 бит
Метод сжатия : С потерями
Размер потока : 59,1 Мбайт (10%)
ServiceKind/String : Complete Main
Default : Да
Forced : Нет

pb.wtf



Скачать Призраки Замоскворечья через торрент https://i89.fastpic.ru/big/2019/0907/c8/86d48d9f2a2972382475b68b62621ec8.jpg Скачать фильм Призраки Замоскворечья через торрент бесплантно в хорошем качестве Описание: Благополучная, размеренная жизнь замоскворецкого вип-ателье рушится в одночасье. Его хозяйка Надежда Раух оказывается втянутой в ... 10 10 2
Торрент: Зарегистрирован [2019-09-07 19:21] · скачан: 45 раз
Статус: √ проверено
Размер: 2.27 GB
Как cкачать? Как скачать Призраки Замоскворечья через торрент | qTorrent

% Раздел Тема Автор DL S | L
Наши сериалы [ 2.28 GB ] Призраки Замоскворечья / Серии: 1-4 из 4 [2019 WEB-DLRip] bober100 Скачать
1 | 0
Наши сериалы [ 2.22 GB ] Призраки Замоскворечья / Серии: 1-4 из 4 [2019 экранизация SATRip-AVC] aleksan55 Скачать
1 | 0

28-11-2019 20:33  

Отключить всю рекламу на сайте

    Дорогой пользователь! Огромная просьба, поблагодарите релизера, оцените раздачу и оставьте свои комментарий, если Вы скачали Призраки Замоскворечья через торрент бесплатно! Внесите свою лепту в развитие PiratBit!
    Комментировать посты могут только пользователи прошедшие не сложную регистрацию
    Показать сообщения:    

    Призраки Замоскворечья через торрент
    Скачать бесплатно Призраки Замоскворечья
    Призраки Замоскворечья скачать торрент
    Призраки Замоскворечья смотреть онлайн
    Cкачать фильм Призраки Замоскворечья бесплатно
    Призраки Замоскворечья скачать торрент в хорошем качестве
    Призраки Замоскворечья смотреть онлайн бесплатно в хорошем качестве


    Вы не можете начинать темы
    Вы не можете отвечать на сообщения
    Вы не можете редактировать свои сообщения
    Вы не можете удалять свои сообщения
    Вы не можете голосовать в опросах
    Вы не можете прикреплять файлы к сообщениям
    Вы можете скачивать файлы