Ссылка на приватное зеркало всего за 1$. Внимание количество ограничено!!!

iTunes

iTunes

iTunes

1

iTunes

iTunes

iTunes

iTunes

iTunes

30
pack

$ от Little Big

ВАЖНО

!!Акция!!

Alien_RageХит недели

RePack

Resident Evil 21

ИГРА 18+

pack

RePack

jed

!!Акция!!

Alien_Rage

RePack

fifa19

RePack

Assassins Creed: Odyssey

RePack

NEED FOR SPEED™ PAYBACK

4 сезон

9 сезон

Бесстыжие 9 сезон

Все сериалы

все сериалы на PB.wtf

RePack

FAR CRY 5
  

Иван Грозный (Сергей Эйзенштейн) [1944-1945, драма, биография, история, HDRip] pb.wtf

Иван Грозный через торрент pb.wtf

Раздают: 1 [ 0 KB/s ]
Размер: 1.46 GB | Добавлен: 8 мес. назад | Торрент скачан:21 раз
Скачать  

08-09-2019 06:21 Иван Грозный Скачать торрент  

Иван ГрозныйГод выпуска: 1944
Страна: СССР
Жанр: Драма, биография, история
Продолжительность: 01:35:16, 01:21:40
Субтитры: Отсутствуют

Режиссер: Сергей Эйзенштейн
Сценарий: Сергей Эйзенштейн

Премьера в мире: 20 января 1945

rating

rating

В ролях: Николай Черкасов, Людмила Целиковская, Серафима Бирман, Павел Кадочников, Михаил Жаров, Амвросий Бучма, Михаил Кузнецов, Михаил Названов, Андрей Абрикосов, Александр Мгебров

Описание: Это фильм о человеке, который в XVI столетии впервые объединил нашу страну и из отдельных разобщенных и своекорыстных княжеств создал единое мощное государство, о государе, впервые возложившем на себя венец Царя Всея Руси, об одной из самых сложных, мощных и противоречивых личностей, - о царе Иоанне Васильевиче, вошедшем в историю под именем Грозный.

Качество: HDRip
Формат: AVI
Видео кодек: XviD
Аудио кодек: MP3
Видео: 608x448 (1.36:1), 25 fps, XviD build 73 ~956 kbps avg, 0.14 bit/pixel
Видео#2: 608x448 (1.36:1), 25 fps, XviD build 73 ~1134 kbps avg, 0.17 bit/pixel
Аудио: 48 kHz, MPEG Layer 3, 1 ch, ~128.00 kbps avg
Релиз от: &
General
Complete name : D:\1. Иван Грозный.1с.HDRip by ExKinoRay & Shkiper.avi
Format : AVI
Format/Info : Audio Video Interleave
File size : 746 MiB
Duration : 1 h 35 min
Overall bit rate : 1 095 kb/s
Writing application : VirtualDubMod 1.5.10.3 | www.virtualdub-fr.org || (build 2550/release)
Writing library : VirtualDubMod build 2550/release

Video
ID : 0
Format : MPEG-4 Visual
Format profile : Advanced Simple@L5
Format settings : BVOP1 / Custom Matrix
Format settings, BVOP : 1
Format settings, QPel : No
Format settings, GMC : No warppoints
Format settings, Matrix : Custom
Codec ID : XVID
Codec ID/Hint : XviD
Duration : 1 h 35 min
Bit rate : 957 kb/s
Width : 608 pixels
Height : 448 pixels
Display aspect ratio : 4:3
Frame rate : 25.000 FPS
Color space : YUV
Chroma subsampling : 4:2:0
Bit depth : 8 bits
Scan type : Progressive
Compression mode : Lossy
Bits/(Pixel*Frame) : 0.141
Stream size : 652 MiB (87%)
Writing library : XviD 73

Audio
ID : 1
Format : MPEG Audio
Format version : Version 1
Format profile : Layer 3
Codec ID : 55
Codec ID/Hint : MP3
Duration : 1 h 35 min
Bit rate mode : Constant
Bit rate : 128 kb/s
Channel(s) : 1 channel
Sampling rate : 48.0 kHz
Frame rate : 41.667 FPS (1152 SPF)
Compression mode : Lossy
Stream size : 87.2 MiB (12%)
Alignment : Aligned on interleaves
Interleave, duration : 40 ms (1.00 video frame)
Interleave, preload duratio : 504 ms
Writing library : LAME3.99r
Encoding settings : -m m -V 4 -q 2 -lowpass 20.5 -b 128
General
Complete name : D:\2. Иван Грозный.2с.HDRip by ExKinoRay & Shkiper.avi
Format : AVI
Format/Info : Audio Video Interleave
File size : 744 MiB
Duration : 1 h 21 min
Overall bit rate : 1 272 kb/s
Writing application : VirtualDubMod 1.5.10.3 | www.virtualdub-fr.org || (build 2550/release)
Writing library : VirtualDubMod build 2550/release

Video
ID : 0
Format : MPEG-4 Visual
Format profile : Advanced Simple@L5
Format settings : BVOP1 / Custom Matrix
Format settings, BVOP : 1
Format settings, QPel : No
Format settings, GMC : No warppoints
Format settings, Matrix : Custom
Codec ID : XVID
Codec ID/Hint : XviD
Duration : 1 h 21 min
Bit rate : 1 134 kb/s
Width : 608 pixels
Height : 448 pixels
Display aspect ratio : 4:3
Frame rate : 25.000 FPS
Color space : YUV
Chroma subsampling : 4:2:0
Bit depth : 8 bits
Scan type : Progressive
Compression mode : Lossy
Bits/(Pixel*Frame) : 0.167
Stream size : 664 MiB (89%)
Writing library : XviD 73

Audio
ID : 1
Format : MPEG Audio
Format version : Version 1
Format profile : Layer 3
Codec ID : 55
Codec ID/Hint : MP3
Duration : 1 h 21 min
Bit rate mode : Constant
Bit rate : 128 kb/s
Channel(s) : 1 channel
Sampling rate : 48.0 kHz
Frame rate : 41.667 FPS (1152 SPF)
Compression mode : Lossy
Stream size : 74.9 MiB (10%)
Alignment : Aligned on interleaves
Interleave, duration : 40 ms (1.00 video frame)
Interleave, preload duratio : 504 ms
Writing library : LAME3.99r
Encoding settings : -m m -V 4 -q 2 -lowpass 20.5 -b 128


Иван Грозный (Сергей Эйзенштейн) скачать торрент


pb.wtf



Скачать Иван Грозный через торрент https://img15.lostpic.net/2019/09/07/a6b5888b9ab90125bc5a3b672de8c52b.jpg Скачать фильм Иван Грозный через торрент бесплантно в хорошем качестве Описание: Это фильм о человеке, который в XVI столетии впервые объединил нашу страну и из отдельных разобщенных и своекорыстных княжеств ... 10 10 2
Торрент: Зарегистрирован [2019-09-08 06:21] · скачан: 21 раз
Статус: √ проверено
Размер: 1.46 GB
Как cкачать? Как скачать Иван Грозный через торрент | qTorrent

% Раздел Тема Автор DL S | L
Наши фильмы (HD, WEB-DL 720p, 1080p) [ 2.15 GB ] Иван Грозный [1944-1945 биография история WEBRip 1080p] WorldSM Скачать
1 | 0

28-11-2019 20:33  

Отключить всю рекламу на сайте

    Дорогой пользователь! Огромная просьба, поблагодарите релизера, оцените раздачу и оставьте свои комментарий, если Вы скачали Иван Грозный через торрент бесплатно! Внесите свою лепту в развитие PiratBit!
    Комментировать посты могут только пользователи прошедшие не сложную регистрацию
    Показать сообщения:    

    Иван Грозный через торрент
    Скачать бесплатно Иван Грозный
    Иван Грозный скачать торрент
    Иван Грозный смотреть онлайн
    Cкачать фильм Иван Грозный бесплатно
    Иван Грозный скачать торрент в хорошем качестве
    Иван Грозный смотреть онлайн бесплатно в хорошем качестве


    Вы не можете начинать темы
    Вы не можете отвечать на сообщения
    Вы не можете редактировать свои сообщения
    Вы не можете удалять свои сообщения
    Вы не можете голосовать в опросах
    Вы не можете прикреплять файлы к сообщениям
    Вы можете скачивать файлы