Ссылка на приватное зеркало всего за 1$. Внимание количество ограничено!!!

iTunes

iTunes

iTunes

1

iTunes

iTunes

iTunes

iTunes

iTunes

30
pack

$ от Little Big

ВАЖНО

!!Акция!!

Alien_RageХит недели

RePack

Resident Evil 21

ИГРА 18+

pack

RePack

jed

!!Акция!!

Alien_Rage

RePack

fifa19

RePack

Assassins Creed: Odyssey

RePack

NEED FOR SPEED™ PAYBACK

4 сезон

9 сезон

Бесстыжие 9 сезон

Все сериалы

все сериалы на PB.wtf

RePack

FAR CRY 5
  

Оно 2 / It Chapter Two (Андрес Мускетти) [2019, ужасы, фэнтези, драма, WEBRip 1080p] [ENG] pb.wtf

Оно 2 через торрент pb.wtf

Размер: 4.36 GB | Добавлен: 9 мес. назад | Торрент скачан:53 раза
Скачать  

09-09-2019 05:58 Оно 2 Скачать торрент  

Оно 2 It / Chapter Two
Год выпуска: 2019
Страна: Канада, США
Жанр: ужасы, комедия
Продолжительность: 02:44:38
Перевод: Отсутствует ! [английский оригинал]
субтитры: корейские (хардсаб)

Режиссер: Андрес Мускетти

В ролях: Джессика Честейн, Джеймс МакЭвой, Билл Хейдер, Айзая Мустафа, Джей Райан, Джеймс Рэнсон, Энди Бин, Билл Скарсгард, Джейден Мартелл, Уайатт Олефф

Описание: Проходит 27 лет после первой встречи ребят с демоническим Пеннивайзом. Они уже выросли, и у каждого своя жизнь. Но неожиданно их спокойное существование нарушает странный телефонный звонок, который заставляет их вновь собраться вместе.

rating

Качество: WEBRip 1080p
Формат: MKV
Видео: MPEG4 Video (H264), 1920x800, 3 400 kb/s
Аудио: AC3, 2 ch, 384 Кбит/с - ENG
General
Unique ID : 209135144955940662569436024228426415201 (0x9D55F6BC372D3BB630AB129123D5FC61)
Complete name : E:\It.Chapter.Two.2019.1080p.HC.HDRip.X264.AC3-EVO[TGx]\It.Chapter.Two.2019.1080p.HC.HDRip.X264.AC3-EVO.mkv
Format : Matroska
Format version : Version 4 / Version 2
File size : 4.36 GiB
Duration : 2 h 44 min
Overall bit rate : 3 788 kb/s
Movie name : EVO
Encoded date : UTC 2019-10-02 19:45:20
Writing application : mkvmerge v30.1.0 ('Forever And More') 64-bit
Writing library : libebml v1.3.6 + libmatroska v1.4.9

Video
ID : 1
Format : AVC
Format/Info : Advanced Video Codec
Format profile : High@L4.1
Format settings : CABAC / 4 Ref Frames
Format settings, CABAC : Yes
Format settings, RefFrames : 4 frames
Codec ID : V_MPEG4/ISO/AVC
Duration : 2 h 44 min
Bit rate : 3 400 kb/s
Width : 1 920 pixels
Height : 800 pixels
Display aspect ratio : 2.40:1
Frame rate mode : Constant
Frame rate : 58.823 FPS
Color space : YUV
Chroma subsampling : 4:2:0
Bit depth : 8 bits
Scan type : Progressive
Bits/(Pixel*Frame) : 0.038
Stream size : 3.83 GiB (88%)
Writing library : x264 core 142 r2479 dd79a61
Encoding settings : cabac=1 / ref=3 / deblock=1:0:0 / analyse=0x3:0x113 / me=hex / subme=7 / psy=1 / psy_rd=1.00:0.00 / mixed_ref=1 / me_range=16 / chroma_me=1 / trellis=1 / 8x8dct=1 / cqm=0 / deadzone=21,11 / fast_pskip=1 / chroma_qp_offset=-2 / threads=24 / lookahead_threads=4 / sliced_threads=0 / nr=0 / decimate=1 / interlaced=0 / bluray_compat=0 / constrained_intra=0 / bframes=3 / b_pyramid=2 / b_adapt=1 / b_bias=0 / direct=1 / weightb=1 / open_gop=0 / weightp=2 / keyint=590 / keyint_min=59 / scenecut=40 / intra_refresh=0 / rc_lookahead=40 / rc=2pass / mbtree=1 / bitrate=3400 / ratetol=1.0 / qcomp=0.60 / qpmin=0 / qpmax=69 / qpstep=4 / cplxblur=20.0 / qblur=0.5 / vbv_maxrate=62500 / vbv_bufsize=78125 / nal_hrd=none / filler=0 / ip_ratio=1.40 / aq=1:1.00
Default : Yes
Forced : No
Color range : Limited
Color primaries : BT.709
Transfer characteristics : BT.709
Matrix coefficients : BT.709

Audio
ID : 2
Format : AC-3
Format/Info : Audio Coding 3
Format settings, Endianness : Big
Codec ID : A_AC3
Duration : 2 h 44 min
Bit rate mode : Constant
Bit rate : 384 kb/s
Channel(s) : 2 channels
Channel positions : Front: L R
Sampling rate : 48.0 kHz
Frame rate : 31.250 FPS (1536 SPF)
Bit depth : 16 bits
Compression mode : Lossy
Delay relative to video : 95 ms
Stream size : 452 MiB (10%)
Title : Stereo
Language : English
Service kind : Complete Main
Default : Yes
Forced : No
скриншот  скриншот  скриншот  
pb.wtf



Скачать Оно 2 через торрент https://i89.fastpic.ru/big/2019/0909/27/0b24b0bc076ff8d674c7561153c80427.jpg Скачать фильм Оно 2 через торрент бесплантно в хорошем качестве Описание: Проходит 27 лет после первой встречи ребят с демоническим Пеннивайзом. Они уже выросли, и у каждого своя жизнь. Но неожиданно их ... 8.5 10 6
Торрент: Зарегистрирован [2019-10-05 10:06] · скачан: 53 раз
Статус: T временная
Размер: 4.36 GB
Как cкачать? Как скачать Оно 2 через торрент | qTorrent

% Раздел Тема Автор DL S | L
Ultra HD (UHD: 2K, 4K, 8K) — видео сверхвысокой чёткости [ 24.23 GB ] Оно 2 / It Chapter Two [2019 UHD BDRip 2160p] DUB [] + MVO [HDRezka Studio] sheker187 Скачать
1 | 0
Ultra HD (UHD: 2K, 4K, 8K) — видео сверхвысокой чёткости [ 85.49 GB ] Оно 2 / It Chapter Two [2019 UHD Blu-ray EUR 2160p] [Dolby Vision] DUB [] sheker187 Скачать
1 | 0
Фильмы 2019-2020 [DVDrip, WEB-DLRip, HDrip] (DUB, MVO) [ 2.91 GB ] Оно 2 / It Chapter Two [2019 BDRip] DUB [ BD EUR] bober100 Скачать
1 | 0
Фильмы (Blu-ray, BD-Remux, HDDVD) [ 37.2 GB ] Оно 2 / It Chapter Two [2019 Blu-ray EUR 1080p] DUB [] bober100 Скачать
1 | 0
Ultra HD (UHD: 2K, 4K, 8K) — видео сверхвысокой чёткости [ 69.53 GB ] Оно 2 / It Chapter Two [2019 UHD BDRemux 2160p] DUB [] +MVO [HDRezka Studio] bober100 Скачать
2 | 0
Фильмы 2019-2020 [DVDrip, WEB-DLRip, HDrip] (DUB, MVO) [ 1.46 GB ] Оно 2 / It Chapter Two [2019 BDRip] - [] Twi7ter Скачать
27 | 0
Ultra HD (UHD: 2K, 4K, 8K) — видео сверхвысокой чёткости [ 74.06 GB ] Оно 2 / It Chapter Two [2019 UHD BDRemux 2160p] [Dolby Vision] DUB + MVO [HDRezka Studio] sheker187 Скачать
1 | 0


Последний раз редактировалось: killermax2013 (2019-10-07 15:56), всего редактировалось 2 раз(а)

28-11-2019 20:33  

Отключить всю рекламу на сайте

05-10-2019 10:30 Оно 2 Скачать торрент  

Комедя????!!!!pb.wtf



19-11-2019 04:05 Оно 2 Скачать торрент  

Топик был перенесен из форума Фильмы без перевода в форум Для поглощённых раздач

Причина переноса: Оно 2 / It Chapter Two
bober100pb.wtf



    Дорогой пользователь! Огромная просьба, поблагодарите релизера, оцените раздачу и оставьте свои комментарий, если Вы скачали Оно 2 через торрент бесплатно! Внесите свою лепту в развитие PiratBit!
    Комментировать посты могут только пользователи прошедшие не сложную регистрацию
    Показать сообщения:    

    Оно 2 через торрент
    Скачать бесплатно Оно 2
    Оно 2 скачать торрент
    Оно 2 смотреть онлайн
    Cкачать фильм Оно 2 бесплатно
    Оно 2 скачать торрент в хорошем качестве
    Оно 2 смотреть онлайн бесплатно в хорошем качестве


    Вы не можете начинать темы
    Вы не можете отвечать на сообщения
    Вы не можете редактировать свои сообщения
    Вы не можете удалять свои сообщения
    Вы не можете голосовать в опросах
    Вы не можете прикреплять файлы к сообщениям
    Вы можете скачивать файлы