Всегда рабочее зеркало без VPN и Proxy просто перед .vidak.icu напиши любое слово или цифру, Пример http://4a4d.vidak.icu

MVO

MVO

1 сезон

1

1 сезон

iTunes

1 сезон

13

1 сезон

Deluxe

pack

Рекомендуем

Repack

30

ВАЖНО

RePack

MK11

RePack

jed

RePack

fifa19

RePack

RDR2

RePack

NEED FOR SPEED™ PAYBACK

Кинопоиск HD

6 сезон

 Острые козырьки 6 сезон

Все сериалы

все сериалы на PB.wtf

RePack

FAR CRY 5
  
Magnet ссылка

Армагеддец / The World's End (Эдгар Райт) [2013, Фантастика, боевик, комедия, UHD BDRip 2160p] Дубляж [Лицензия] + 2xAVO pb.wtf

Армагеддец через торрент pb.wtf

Размер: 20.65 GB | Добавлен: 2 года 11 мес. назад | Торрент скачан:28 раз
Смотреть онлайн Армагеддец | Скачать    Ребята, помогите собрать деньги на оплату серверов!!!

09-09-2019 10:24 Армагеддец Скачать торрент  

Армагеддец / The World's End««Убойные напитки. Отличная закуска. На десерт – конец света»»

Год выпуска: 2013
Страна: Великобритания, США, Япония
Жанр: Фантастика, боевик, комедия
Продолжительность: 01:49:04
Перевод: Дублированный, Авторский
Субтитры: Русский (Forced, Full), Украинский (Full), Английский (Full, SDH)
Режиссер: Эдгар Райт
В ролях:

Саймон Пегг (Gary King), Ник Фрост (Andy Knightley), Пэдди Консидайн (Steven Prince), Мартин Фриман (Oliver Chamberlain), Эдди Марсан (Peter Page), Розамунд Пайк (Sam Chamberlain), Пирс Броснан (Guy Shepherd), Дэвид Брэдли (Basil), Майкл Смайли (Reverend Green), Стив Орам (Motorcycle Policeman), Билл Найи (The Network, озвучка), Томас Ло (Young Gary)
Описание:
Гарри Кинг - алкоголик со стажем, живущий рок-н-рольной жизнью в свои сорок лет. Он никак не может забыть неудачный подвиг школьных лет «Золотая миля» - грандиозный забег по 12 пабам за одну ночь. Гарри собирает свою старую команду, и пять друзей снова возвращаются в свой маленький родной город с одной целью - достичь заветного заведения «Конец Света». Но в городке их почему-то никто не узнаёт, а в тихих пабах притаилась страшная угроза...
Рейтинг:

MPAA: R - Лицам до 17 лет обязательно присутствие взрослого
Качество: UHD BDRip 2160p
Формат: MKV
Видео: HEVC HDR, 3840x1636, ~23,3 Мbps, 23.976 fps
Аудио 1: DTS, 6 ch, 768 Kbps - Русский (DUB)
Аудио 2: AC3, 6 ch, 640 Kbps - Русский (DUB)
Аудио 3: AC3, 6 ch, 448 Kbps - Русский (AVO Карповский)
Аудио 4: AC3, 6 ch, 448 Kbps - Русский (AVO Матвеев)
Аудио 5: DTS, 6 ch, 1509 Kbps - Английский
Навигация по главам: есть

Общее
Уникальный идентификатор : 223950804357730456223848849481340136635 (0xA87B5B240282BD032EDE33581A29ACBB)
Полное имя : The Worlds End.2013.HDR.BDRip.2160p.W.mkv
Формат : Matroska
Версия формата : Version 4
Размер файла : 20,7 Гбайт
Продолжительность : 1 ч. 49 м.
Общий поток : 27,1 Мбит/сек
Название фильма : The Worlds End.2013.HDR.BDRip.2160p.W
Дата кодирования : UTC 2019-09-08 17:56:42
Программа кодирования : mkvmerge v23.0.0 ('The Bride Said No') 64-bit
Библиотека кодирования : libebml v1.3.6 + libmatroska v1.4.9

Видео
Идентификатор : 1
Формат : HEVC
Формат/Информация : High Efficiency Video Coding
Профиль формата : Main [email protected]@High
HDR_Format : SMPTE ST 2086, HDR10 compatible
Идентификатор кодека : V_MPEGH/ISO/HEVC
Продолжительность : 1 ч. 49 м.
Битрейт : 23,3 Мбит/сек
Ширина : 3840 пикселей
Высота : 1636 пикселей
Соотношение сторон : 2,35:1
Режим частоты кадров : Постоянный
Частота кадров : 23,976 (24000/1001) кадра/сек
Цветовое пространство : YUV
Субдискретизация насыщенности : 4:2:0 (Type 2)
Битовая глубина : 10 бит
Бит/(Пиксели*Кадры) : 0.155
Размер потока : 17,7 Гбайт (86%)
Библиотека кодирования : x265 3.1+11-de920e0a3183:[Windows][MSVC 1922][64 bit] 10bit
Настройки программы : cpuid=1111039 / frame-threads=5 / numa-pools=36 / wpp / no-pmode / no-pme / no-psnr / no-ssim / log-level=2 / input-csp=1 / input-res=3840x1636 / interlace=0 / total-frames=156892 / level-idc=51 / high-tier=1 / uhd-bd=0 / ref=4 / no-allow-non-conformance / repeat-headers / annexb / aud / hrd / info / hash=0 / no-temporal-layers / no-open-gop / min-keyint=1 / keyint=24 / gop-lookahead=0 / bframes=4 / b-adapt=2 / b-pyramid / bframe-bias=0 / rc-lookahead=25 / lookahead-slices=4 / scenecut=40 / radl=0 / no-splice / no-intra-refresh / ctu=64 / min-cu-size=8 / rect / no-amp / max-tu-size=32 / tu-inter-depth=1 / tu-intra-depth=1 / limit-tu=0 / rdoq-level=2 / dynamic-rd=0.00 / no-ssim-rd / signhide / no-tskip / nr-intra=0 / nr-inter=0 / no-constrained-intra / no-strong-intra-smoothing / max-merge=3 / limit-refs=3 / limit-modes / me=3 / subme=3 / merange=57 / temporal-mvp / no-hme / weightp / no-weightb / no-analyze-src-pics / deblock=-3:-3 / no-sao / no-sao-non-deblock / rd=4 / no-early-skip / rskip / no-fast-intra / no-tskip-fast / no-cu-lossless / no-b-intra / no-splitrd-skip / rdpenalty=0 / psy-rd=2.00 / psy-rdoq=1.00 / no-rd-refine / no-lossless / cbqpoffs=0 / crqpoffs=0 / rc=crf / crf=17.0 / qcomp=0.60 / qpstep=4 / stats-write=0 / stats-read=0 / vbv-maxrate=160000 / vbv-bufsize=160000 / vbv-init=0.9 / crf-max=0.0 / crf-min=0.0 / ipratio=1.40 / pbratio=1.30 / aq-mode=2 / aq-strength=1.00 / cutree / zone-count=0 / no-strict-cbr / qg-size=32 / no-rc-grain / qpmax=69 / qpmin=0 / no-const-vbv / sar=1 / overscan=0 / videoformat=5 / range=0 / colorprim=9 / transfer=16 / colormatrix=9 / chromaloc=1 / chromaloc-top=2 / chromaloc-bottom=2 / display-window=0 / master-display=G(13250,34500)B(7500,3000)R(34000,16000)WP(15635,16450)L(10000000,50)cll=1000,184 / min-luma=0 / max-luma=1023 / log2-max-poc-lsb=8 / vui-timing-info / vui-hrd-info / slices=1 / no-opt-qp-pps / no-opt-ref-list-length-pps / no-multi-pass-opt-rps / scenecut-bias=0.05 / no-opt-cu-delta-qp / no-aq-motion / hdr / hdr-opt / no-dhdr10-opt / no-idr-recovery-sei / analysis-reuse-level=5 / scale-factor=0 / refine-intra=0 / refine-inter=0 / refine-mv=0 / refine-ctu-distortion=0 / no-limit-sao / ctu-info=0 / no-lowpass-dct / refine-analysis-type=0 / copy-pic=1 / max-ausize-factor=1.0 / no-dynamic-refine / no-single-sei / no-hevc-aq / no-svt / no-field / qp-adaptation-range=1.00
Язык : English
Default : Да
Forced : Нет
Цветовой диапазон : Limited
Основные цвета : BT.2020
Характеристики трансфера : PQ
Коэффициенты матрицы : BT.2020 non-constant
MasteringDisplay_ColorPrimaries : Display P3
MasteringDisplay_Luminance : min: 0.0050 cd/m2, max: 1000 cd/m2
MaxCLL : 1000 cd/m2
MaxFALL : 184 cd/m2

Аудио #1
Идентификатор : 2
Формат : DTS
Формат/Информация : Digital Theater Systems
Идентификатор кодека : A_DTS
Продолжительность : 1 ч. 49 м.
Вид битрейта : Постоянный
Битрейт : 768 Кбит/сек
Каналы : 6 каналов
ChannelLayout : C L R Ls Rs LFE
Частота : 48,0 КГц
Частота кадров : 93,750 кадра/сек (512 SPF)
Битовая глубина : 24 бит
Метод сжатия : С потерями
Размер потока : 600 Мбайт (3%)
Заголовок : DUB
Язык : Russian
Default : Да
Forced : Нет

Аудио #2
Идентификатор : 3
Формат : AC-3
Формат/Информация : Audio Coding 3
Коммерческое название : Dolby Digital
Идентификатор кодека : A_AC3
Продолжительность : 1 ч. 49 м.
Вид битрейта : Постоянный
Битрейт : 640 Кбит/сек
Каналы : 6 каналов
ChannelLayout : L R C LFE Ls Rs
Частота : 48,0 КГц
Частота кадров : 31,250 кадров/сек (1536 SPF)
Битовая глубина : 16 бит
Метод сжатия : С потерями
Размер потока : 500 Мбайт (2%)
Заголовок : DUB
Язык : Russian
ServiceKind : Complete Main
Default : Нет
Forced : Нет

Аудио #3
Идентификатор : 4
Формат : AC-3
Формат/Информация : Audio Coding 3
Коммерческое название : Dolby Digital
Идентификатор кодека : A_AC3
Продолжительность : 1 ч. 49 м.
Вид битрейта : Постоянный
Битрейт : 448 Кбит/сек
Каналы : 6 каналов
ChannelLayout : L R C LFE Ls Rs
Частота : 48,0 КГц
Частота кадров : 31,250 кадров/сек (1536 SPF)
Битовая глубина : 16 бит
Метод сжатия : С потерями
Размер потока : 350 Мбайт (2%)
Заголовок : AVO Карповский
Язык : Russian
ServiceKind : Complete Main
Default : Нет
Forced : Нет

Аудио #4
Идентификатор : 5
Формат : AC-3
Формат/Информация : Audio Coding 3
Коммерческое название : Dolby Digital
Идентификатор кодека : A_AC3
Продолжительность : 1 ч. 49 м.
Вид битрейта : Постоянный
Битрейт : 448 Кбит/сек
Каналы : 6 каналов
ChannelLayout : L R C LFE Ls Rs
Частота : 48,0 КГц
Частота кадров : 31,250 кадров/сек (1536 SPF)
Битовая глубина : 16 бит
Метод сжатия : С потерями
Размер потока : 350 Мбайт (2%)
Заголовок : AVO Матвеев
Язык : Russian
ServiceKind : Complete Main
Default : Нет
Forced : Нет

Аудио #5
Идентификатор : 6
Формат : DTS
Формат/Информация : Digital Theater Systems
Идентификатор кодека : A_DTS
Продолжительность : 1 ч. 49 м.
Вид битрейта : Постоянный
Битрейт : 1509 Кбит/сек
Каналы : 6 каналов
ChannelLayout : C L R Ls Rs LFE
Частота : 48,0 КГц
Частота кадров : 93,750 кадра/сек (512 SPF)
Битовая глубина : 24 бит
Метод сжатия : С потерями
Размер потока : 1,15 Гбайт (6%)
Язык : English
Default : Нет
Forced : Нет

Текст #1
Идентификатор : 7
Формат : UTF-8
Идентификатор кодека : S_TEXT/UTF8
Идентификатор кодека/Информация : UTF-8 Plain Text
Продолжительность : 1 ч. 48 м.
Битрейт : 1 бит/сек
ElementCount : 42
Размер потока : 1,38 Кбайт (0%)
Заголовок : Forced
Язык : Russian
Default : Да
Forced : Нет

Текст #2
Идентификатор : 8
Формат : UTF-8
Идентификатор кодека : S_TEXT/UTF8
Идентификатор кодека/Информация : UTF-8 Plain Text
Продолжительность : 1 ч. 48 м.
Битрейт : 131 бит/сек
ElementCount : 1728
Размер потока : 105 Кбайт (0%)
Заголовок : Full
Язык : Russian
Default : Нет
Forced : Нет

Текст #3
Идентификатор : 9
Формат : UTF-8
Идентификатор кодека : S_TEXT/UTF8
Идентификатор кодека/Информация : UTF-8 Plain Text
Продолжительность : 1 ч. 48 м.
Битрейт : 131 бит/сек
ElementCount : 1727
Размер потока : 104 Кбайт (0%)
Заголовок : Full
Язык : Ukrainian
Default : Нет
Forced : Нет

Текст #4
Идентификатор : 10
Формат : UTF-8
Идентификатор кодека : S_TEXT/UTF8
Идентификатор кодека/Информация : UTF-8 Plain Text
Продолжительность : 1 ч. 42 м.
Битрейт : 84 бит/сек
ElementCount : 1749
Размер потока : 64,1 Кбайт (0%)
Заголовок : Full
Язык : English
Default : Нет
Forced : Нет

Текст #5
Идентификатор : 11
Формат : UTF-8
Идентификатор кодека : S_TEXT/UTF8
Идентификатор кодека/Информация : UTF-8 Plain Text
Продолжительность : 1 ч. 43 м.
Битрейт : 87 бит/сек
ElementCount : 1863
Размер потока : 66,6 Кбайт (0%)
Заголовок : SDH
Язык : English
Default : Нет
Forced : Нет

Меню
00:00:00.000 : en:Chapter 01
00:05:38.964 : en:Chapter 02
00:10:33.675 : en:Chapter 03
00:15:35.434 : en:Chapter 04
00:19:57.363 : en:Chapter 05
00:25:24.648 : en:Chapter 06
00:30:07.848 : en:Chapter 07
00:36:10.418 : en:Chapter 08
00:42:40.933 : en:Chapter 09
00:46:17.900 : en:Chapter 10
00:50:20.684 : en:Chapter 11
00:57:21.396 : en:Chapter 12
01:02:29.871 : en:Chapter 13
01:06:31.404 : en:Chapter 14
01:12:17.792 : en:Chapter 15
01:18:37.671 : en:Chapter 16
01:23:51.860 : en:Chapter 17
01:26:46.451 : en:Chapter 18
01:35:17.420 : en:Chapter 19
01:42:20.885 : en:Chapter 20
pb.wtf



Скачать Армагеддец через торрент https://b.radikal.ru/b17/1909/52/17bc48efb8a4.png Скачать, смотреть онлайн Армагеддец бесплантно в хорошем качестве Описание: Гарри Кинг - алкоголик со стажем, живущий рок-н-рольной жизнью в свои сорок лет. Он никак не может забыть неудачный подвиг ... 10 10 2
Торрент: Зарегистрирован [2019-09-09 10:24] · скачан: 28 раз
Статус: √ проверено
Размер: 20.65 GB
Как cкачать? Как скачать Армагеддец через торрент | UTorrent

28-11-2019 20:33  

Отключить вcю реклaмy на сайте

    Дорогой пользователь! Огромная просьба, поблагодарите релизера, оцените раздачу и оставьте свои комментарий, если Вы скачали Армагеддец через торрент бесплатно!
    Комментировать посты могут только пользователи прошедшие не сложную регистрацию
    Показать сообщения:    

    Армагеддец через торрент
    Скачать бесплатно Армагеддец
    Армагеддец скачать торрент
    Армагеддец смотреть онлайн
    Cкачать фильм Армагеддец бесплатно
    Армагеддец скачать торрент в хорошем качестве
    Армагеддец смотреть онлайн бесплатно в хорошем качестве


    Вы не можете начинать темы
    Вы не можете отвечать на сообщения
    Вы не можете редактировать свои сообщения
    Вы не можете удалять свои сообщения
    Вы не можете голосовать в опросах
    Вы не можете прикреплять файлы к сообщениям
    Вы можете скачивать файлы