Ссылка на приватное зеркало нашего сайта всего за 1$. Внимание количество ограничено!!!

2 сезон

iTunes

1 сезон

1

2 сезон

2 сезон

iTunes

1 сезон

RePack

30

Ultimate

ВАЖНО

ИГРА 18+

pack

RePack

MK11
pack

Забери бонус

RePack

jed

!!Акция!!

Alien_Rage

RePack

fifa19

RePack

Assassins Creed: Odyssey

RePack

NEED FOR SPEED™ PAYBACK

4 сезон

9 сезон

Бесстыжие 9 сезон

Все сериалы

все сериалы на PB.wtf

RePack

FAR CRY 5
  

Тачки / Cars (Джон Лассетер, Джо Рэнфт) [2006, Мультфильм, комедия, приключения, семейный, спорт, UHD BDRemux 2160p] DUB [Лицензия] pb.wtf

Тачки через торрент pb.wtf

Размер: 39.68 GB | Добавлен: 1 год 2 мес. назад | Торрент скачан:16 раз
Скачать  

09-09-2019 16:22 Тачки Скачать торрент  

Тачки / Cars
Год выпуска: 2006
Страна: США
Жанр: Мультфильм, комедия, приключения, семейный, спорт
Продолжительность: 01:56:46
Перевод: Дублированный | Лицензия
Субтитры: Русские (Full), английские

Режиссер: Джон Лассетер, Джо Рэнфт

rating

В ролях: Оуэн Уилсон, Пол Ньюман, Бонни Хант, Ларри Кейбл Гай, Чич Марин, Тони Шэлоуб, Гуидо Куарони, Дженифер Льюис, Пол Дули, Майкл Уоллис

Описание: Ты стопроцентно уверен, что рождён побеждать! И Кубку Большого Поршня - призу за участие в гонках, не уйти от того, чей девиз таков - "летай как бабочка, жаль как пчела"! Интересно, что же должно произойти с тобой, таким "звёздным гонщиком", чтобы ты в конце концов понял, что может быть "первый" - не всегда честный, "второй" - не совсем лузер, а близкие друзья в жизни намного важнее, чем фары на ночном шоссе?...

Качество: UHD BDRemux 2160p
Формат: MKV

Видео: 3840x2160 at 23.976 fps, MPEG-H HEVC HDR Video, 40200 kbps avg
Аудио#1: 48 kHz, AC3, 5.1, 640 Kbps | Лицензия | RUS |
Аудио#2: 48 kHz, AC3, 7.1, 7098 Kbps | Оригинал | ENG |
Аудио#3: 48 kHz, AC3, 5.1, 640 Kbps | Оригинал | ENG |
скриншот  скриншот  скриншот  скриншот  скриншот  

General
Unique ID : 201241372823759993435417397162023992241 (0x9765ADB889EA020D0DAA8D010D3E3BB1)
Complete name : D:Video111Cars.2006.BDREMUX.2160p.HDR.seleZen.mkv
Format : Matroska
Format version : Version 4
File size : 39.7 GiB
Duration : 1 h 56 min
Overall bit rate mode : Variable
Overall bit rate : 48.7 Mb/s
Movie name : Cars 2006 4K from селезень
Encoded date : UTC 2019-09-09 15:51:30
Writing application : mkvmerge v22.0.0 ('At The End Of The World') 64-bit
Writing library : libebml v1.3.5 + libmatroska v1.4.8

Video
ID : 1
Format : HEVC
Format/Info : High Efficiency Video Coding
Format profile : Main 10@L5.1@High
HDR format : SMPTE ST 2086, HDR10 compatible
Codec ID : V_MPEGH/ISO/HEVC
Duration : 1 h 56 min
Bit rate : 40.2 Mb/s
Width : 3 840 pixels
Height : 2 160 pixels
Display aspect ratio : 16:9
Frame rate mode : Constant
Frame rate : 23.976 (24000/1001) FPS
Color space : YUV
Chroma subsampling : 4:2:0 (Type 2)
Bit depth : 10 bits
Bits/(Pixel*Frame) : 0.202
Stream size : 32.8 GiB (83%)
Writing library : ATEME Titan File 3.9.0 (4.9.0.0)
Language : English
Default : Yes
Forced : No
Color range : Limited
Color primaries : BT.2020
Transfer characteristics : PQ
Matrix coefficients : BT.2020 non-constant
Mastering display color pri : Display P3
Mastering display luminance : min: 0.0000 cd/m2, max: 1000 cd/m2

Audio #1
ID : 2
Format : AC-3
Format/Info : Audio Coding 3
Commercial name : Dolby Digital
Codec ID : A_AC3
Duration : 1 h 56 min
Bit rate mode : Constant
Bit rate : 640 kb/s
Channel(s) : 6 channels
Channel layout : L R C LFE Ls Rs
Sampling rate : 48.0 kHz
Frame rate : 31.250 FPS (1536 SPF)
Bit depth : 16 bits
Compression mode : Lossy
Stream size : 535 MiB (1%)
Title : Dub [License]
Language : Russian
Service kind : Complete Main
Default : Yes
Forced : Yes

Audio #2
ID : 3
Format : MLP FBA 16-ch
Format/Info : Meridian Lossless Packing FBA with 16-channel presentation
Commercial name : Dolby TrueHD with Dolby Atmos
Codec ID : A_TRUEHD
Duration : 1 h 56 min
Bit rate mode : Variable
Bit rate : 7 098 kb/s
Maximum bit rate : 9 315 kb/s
Channel(s) : 8 channels
Channel layout : L R C LFE Ls Rs Lb Rb
Sampling rate : 48.0 kHz
Frame rate : 1 200.000 FPS (40 SPF)
Compression mode : Lossless
Stream size : 5.79 GiB (15%)
Title : Original
Language : English
Default : No
Forced : No
Number of dynamic objects : 13
Bed channel count : 1 channel
Bed channel configuration : LFE

Audio #3
ID : 4
Format : AC-3
Format/Info : Audio Coding 3
Commercial name : Dolby Digital
Codec ID : A_AC3
Duration : 1 h 56 min
Bit rate mode : Constant
Bit rate : 640 kb/s
Channel(s) : 6 channels
Channel layout : L R C LFE Ls Rs
Sampling rate : 48.0 kHz
Frame rate : 31.250 FPS (1536 SPF)
Bit depth : 16 bits
Compression mode : Lossy
Stream size : 535 MiB (1%)
Language : English
Service kind : Complete Main
Default : No
Forced : No

Text #1
ID : 5
Format : UTF-8
Codec ID : S_TEXT/UTF8
Codec ID/Info : UTF-8 Plain Text
Duration : 1 h 55 min
Bit rate : 110 b/s
Count of elements : 1479
Stream size : 93.4 KiB (0%)
Title : Full
Language : Russian
Default : No
Forced : No

Text #2
ID : 6
Format : UTF-8
Codec ID : S_TEXT/UTF8
Codec ID/Info : UTF-8 Plain Text
Duration : 1 h 55 min
Bit rate : 65 b/s
Count of elements : 1440
Stream size : 55.2 KiB (0%)
Title : Full
Language : English
Default : No
Forced : No

Menu
00:00:00.000 : en:00:00:00.000
00:09:38.411 : en:00:09:38.411
00:13:48.828 : en:00:13:48.828
00:16:19.854 : en:00:16:19.854
00:19:53.484 : en:00:19:53.484
00:24:33.889 : en:00:24:33.889
00:27:27.562 : en:00:27:27.562
00:28:12.774 : en:00:28:12.774
00:29:42.155 : en:00:29:42.155
00:33:58.286 : en:00:33:58.286
00:35:54.277 : en:00:35:54.277
00:41:51.175 : en:00:41:51.175
00:45:56.587 : en:00:45:56.587
00:48:41.043 : en:00:48:41.043
00:50:39.494 : en:00:50:39.494
00:54:41.194 : en:00:54:41.194
00:57:48.214 : en:00:57:48.214
01:01:29.769 : en:01:01:29.769
01:02:59.108 : en:01:02:59.108
01:05:43.272 : en:01:05:43.272
01:07:43.601 : en:01:07:43.601
01:09:49.810 : en:01:09:49.810
01:11:27.741 : en:01:11:27.741
01:15:01.955 : en:01:15:01.955
01:15:58.303 : en:01:15:58.303
01:20:14.642 : en:01:20:14.642
01:22:22.187 : en:01:22:22.187
01:24:59.302 : en:01:24:59.302
01:27:32.246 : en:01:27:32.246
01:32:37.510 : en:01:32:37.510
01:46:18.121 : en:01:46:18.121
01:48:32.338 : en:01:48:32.338

pb.wtf



Скачать Тачки через торрент https://img16.lostpic.net/2019/09/09/c3938ba8751da8aefe9b3d1032c1b6cc.jpg Скачать фильм Тачки через торрент бесплантно в хорошем качестве Описание: Ты стопроцентно уверен, что рождён побеждать! И Кубку Большого Поршня - призу за участие в гонках, не уйти от того, чей девиз ... 10 10 2
Торрент: Зарегистрирован [2019-09-09 16:22] · скачан: 16 раз
Статус: √ проверено
Размер: 39.68 GB
Как cкачать? Как скачать Тачки через торрент | qTorrent

% Раздел Тема Автор DL S | L
Ultra HD (UHD: 2K, 4K, 8K) [ 16.31 GB ] Тачки / Cars [2006 Мультфильм UHD BDRip 2160p] DUB [] bober100 Скачать
1 | 0
Ultra HD (UHD: 2K, 4K, 8K) [ 37.93 GB ] Тачки 2 / Cars 2 [2011 Мультфильм UHD BDRemux 2160p] DUB [] bober100 Скачать
1 | 0
3D Мультфильмы [ 5.81 GB ] Тачки 3 в 3D / Cars 3 in 3D [2017 Мультфильм Спорт BDRip 1080p BD CEE] Анаглиф slaventi-69 Скачать
1 | 0
Зарубежные Мультфильмы (BDRip 1080p, 720p, Blu-ray, BD-Remux) [ 4.26 GB ] Тачки 3 / Cars 3 [2017 мультфильм BDRip 1080p HEVC ] Мичман37 Скачать
2 | 0
Ultra HD (UHD: 2K, 4K, 8K) [ 36.33 GB ] Тачки 3 / Cars 3 [2017 мультфильм UHD BDRemux 2160p] - [] sheker187 Скачать
1 | 0
Зарубежные Мультфильмы (BDRip 1080p, 720p, Blu-ray, BD-Remux) [ 9.8 GB ] Тачки 3 / Cars 3 [2017 Мультфильм BDRip 1080p] bober100 Скачать
1 | 0
3D Мультфильмы [ 10.08 GB ] Тачки 3 в 3Д / Cars 3 3D [2017 Мультфильм Спорт BDrip 1080p] DUB / OverUnder / Вертикальная стереопара serega768 Скачать
1 | 0

28-11-2019 20:33  

Отключить всю рекламу на сайте

    Дорогой пользователь! Огромная просьба, поблагодарите релизера, оцените раздачу и оставьте свои комментарий, если Вы скачали Тачки через торрент бесплатно! Внесите свою лепту в развитие PiratBit!
    Комментировать посты могут только пользователи прошедшие не сложную регистрацию
    Показать сообщения:    

    Тачки через торрент
    Скачать бесплатно Тачки
    Тачки скачать торрент
    Тачки смотреть онлайн
    Cкачать фильм Тачки бесплатно
    Тачки скачать торрент в хорошем качестве
    Тачки смотреть онлайн бесплатно в хорошем качестве


    Вы не можете начинать темы
    Вы не можете отвечать на сообщения
    Вы не можете редактировать свои сообщения
    Вы не можете удалять свои сообщения
    Вы не можете голосовать в опросах
    Вы не можете прикреплять файлы к сообщениям
    Вы можете скачивать файлы