Ссылка на приватное зеркало нашего сайта всего за 1$. Внимание количество ограничено!!!

2 сезон

iTunes

1 сезон

1

2 сезон

2 сезон

iTunes

1 сезон

RePack

30

Ultimate

ВАЖНО

ИГРА 18+

pack

RePack

MK11
pack

Забери бонус

RePack

jed

!!Акция!!

Alien_Rage

RePack

fifa19

RePack

Assassins Creed: Odyssey

RePack

NEED FOR SPEED™ PAYBACK

4 сезон

9 сезон

Бесстыжие 9 сезон

Все сериалы

все сериалы на PB.wtf

RePack

FAR CRY 5
  

Головоломка / Inside Out (Пит Доктер, Роналдо Дель Кармен) [2015, Мультфильм, комедия, UHD BDRemux 2160p] DUB [Лицензия] +2xAVO pb.wtf

Головоломка через торрент pb.wtf

Размер: 39.47 GB | Добавлен: 1 год 2 мес. назад | Торрент скачан:1 раз
Скачать  

09-09-2019 17:40 Головоломка Скачать торрент  

Головоломка / Inside Out
Год выпуска: 2015
Страна: США
Жанр: Мультфильм, комедия
Продолжительность: 01:34:51
Перевод:

#1: Дублированный | Лицензия
#2: Авторский | Живов
#3: Авторский | Сербин

Субтитры: Русские (Full), английские

Режиссер: Пит Доктер, Роналдо Дель Кармен

rating

В ролях:

Эми Полер (Joy, озвучка), Филлис Смит (Sadness, озвучка), Ричард Кайнд (Bing Bong, озвучка), Билл Хейдер (Fear, озвучка), Льюис Блэк (Anger, озвучка), Минди Кейлинг (Disgust, озвучка), Кейтлин Диас (Riley, озвучка), Дайан Лэйн (Mom, озвучка), Кайл МакЛоклен (Dad, озвучка), Пола Паундстон (Forgetter Paula, озвучка), Бобби Мойнахан (Forgetter Bobby, озвучка), Паула Пелл (Mom's Anger / дополнительные голоса, озвучка)
Описание: Райли — обычная 11-летняя школьница, и, как у каждого из нас, ее поведение определяют пять базовых эмоций: Радость, Печаль, Страх, Гнев и Брезгливость. Эмоции живут в сознании девочки и каждый день помогают ей справляться с проблемами, руководя всеми ее поступками. До поры до времени эмоции живут дружно, но вдруг оказывается, что Райли и ее родителям предстоит переезд из небольшого уютного городка в шумный и людный мегаполис. Каждая из эмоций считает, что именно она лучше прочих знает, что нужно делать в этой непростой ситуации, и в голове у девочки наступает полная неразбериха. Чтобы наладить жизнь в большом городе, освоиться в новой школе и подружиться с одноклассниками, эмоциям Райли предстоит снова научиться работать сообща.

Качество: UHD BDRemux 2160p
Формат: MKV

Видео: 3840x2160 at 23.976 fps, MPEG-H HEVC HDR Video, 42900 kbps avg
Аудио#1: 48 kHz, AC3, 5.1, 640 Kbps | Лицензия | RUS |
Аудио#2: 48 kHz, DTS-HD MA, 7.1, 4858 Kbps | Живов | RUS |
Аудио#3: 48 kHz, DTS-HD MA, 7.1, 4082 Kbps | Сербин | RUS |
Аудио#4: 48 kHz, TrueHD, 7.1, 6418 Kbps | Оригинал | ENG |
Аудио#5: 48 kHz, AC3, 5.1, 640 Kbps | Оригинал | ENG |
скриншот  скриншот  скриншот  скриншот  скриншот  

General
Unique ID : 311545591522546774235114332760679344148 (0xEA617F958997962BD94A27BA35076814)
Complete name : F:VideoInside.Out.2015.BDREMUX.2160p.HDR.seleZen.mkv
Format : Matroska
Format version : Version 4
File size : 39.5 GiB
Duration : 1 h 34 min
Overall bit rate mode : Variable
Overall bit rate : 59.6 Mb/s
Movie name : Inside Out 2015 4K from селезень
Encoded date : UTC 2019-09-09 17:10:40
Writing application : mkvmerge v22.0.0 ('At The End Of The World') 64-bit
Writing library : libebml v1.3.5 + libmatroska v1.4.8

Video
ID : 1
Format : HEVC
Format/Info : High Efficiency Video Coding
Format profile : Main 10@L5.1@High
HDR format : SMPTE ST 2086, HDR10 compatible
Codec ID : V_MPEGH/ISO/HEVC
Duration : 1 h 34 min
Bit rate : 42.9 Mb/s
Width : 3 840 pixels
Height : 2 160 pixels
Display aspect ratio : 16:9
Frame rate mode : Constant
Frame rate : 23.976 (24000/1001) FPS
Color space : YUV
Chroma subsampling : 4:2:0 (Type 2)
Bit depth : 10 bits
Bits/(Pixel*Frame) : 0.216
Stream size : 28.4 GiB (72%)
Writing library : ATEME Titan File 3.9.0 (4.9.0.0)
Language : English
Default : Yes
Forced : No
Color range : Limited
Color primaries : BT.2020
Transfer characteristics : PQ
Matrix coefficients : BT.2020 non-constant
Mastering display color pri : Display P3
Mastering display luminance : min: 0.0000 cd/m2, max: 1000 cd/m2

Audio #1
ID : 2
Format : AC-3
Format/Info : Audio Coding 3
Commercial name : Dolby Digital
Codec ID : A_AC3
Duration : 1 h 34 min
Bit rate mode : Constant
Bit rate : 640 kb/s
Channel(s) : 6 channels
Channel layout : L R C LFE Ls Rs
Sampling rate : 48.0 kHz
Frame rate : 31.250 FPS (1536 SPF)
Bit depth : 16 bits
Compression mode : Lossy
Stream size : 433 MiB (1%)
Title : Dub [License]
Language : Russian
Service kind : Complete Main
Default : Yes
Forced : Yes

Audio #2
ID : 3
Format : DTS XLL
Format/Info : Digital Theater Systems
Commercial name : DTS-HD Master Audio
Codec ID : A_DTS
Duration : 1 h 34 min
Bit rate mode : Variable
Bit rate : 4 858 kb/s
Channel(s) : 8 channels
Channel layout : C L R LFE Lb Rb Lss Rss
Sampling rate : 48.0 kHz
Frame rate : 93.750 FPS (512 SPF)
Bit depth : 24 bits
Compression mode : Lossless
Stream size : 3.22 GiB (8%)
Title : AVO [Zhivov]
Language : Russian
Default : No
Forced : No

Audio #3
ID : 4
Format : DTS XLL
Format/Info : Digital Theater Systems
Commercial name : DTS-HD Master Audio
Codec ID : A_DTS
Duration : 1 h 34 min
Bit rate mode : Variable
Bit rate : 4 082 kb/s
Channel(s) : 8 channels
Channel layout : C L R LFE Lb Rb Lss Rss
Sampling rate : 48.0 kHz
Frame rate : 93.750 FPS (512 SPF)
Bit depth : 24 bits
Compression mode : Lossless
Stream size : 2.70 GiB (7%)
Title : AVO [Serbin]
Language : Russian
Default : No
Forced : No

Audio #4
ID : 5
Format : MLP FBA 16-ch
Format/Info : Meridian Lossless Packing FBA with 16-channel presentation
Commercial name : Dolby TrueHD with Dolby Atmos
Codec ID : A_TRUEHD
Duration : 1 h 34 min
Bit rate mode : Variable
Bit rate : 6 418 kb/s
Maximum bit rate : 8 226 kb/s
Channel(s) : 8 channels
Channel layout : L R C LFE Ls Rs Lb Rb
Sampling rate : 48.0 kHz
Frame rate : 1 200.000 FPS (40 SPF)
Compression mode : Lossless
Stream size : 4.25 GiB (11%)
Title : Original
Language : English
Default : No
Forced : No
Number of dynamic objects : 13
Bed channel count : 1 channel
Bed channel configuration : LFE

Audio #5
ID : 6
Format : AC-3
Format/Info : Audio Coding 3
Commercial name : Dolby Digital
Codec ID : A_AC3
Duration : 1 h 34 min
Bit rate mode : Constant
Bit rate : 640 kb/s
Channel(s) : 6 channels
Channel layout : L R C LFE Ls Rs
Sampling rate : 48.0 kHz
Frame rate : 31.250 FPS (1536 SPF)
Bit depth : 16 bits
Compression mode : Lossy
Stream size : 434 MiB (1%)
Language : English
Service kind : Complete Main
Default : No
Forced : No

Text #1
ID : 7
Format : UTF-8
Codec ID : S_TEXT/UTF8
Codec ID/Info : UTF-8 Plain Text
Duration : 1 h 28 min
Bit rate : 111 b/s
Count of elements : 1258
Stream size : 72.5 KiB (0%)
Title : Full
Language : Russian
Default : No
Forced : No

Text #2
ID : 8
Format : UTF-8
Codec ID : S_TEXT/UTF8
Codec ID/Info : UTF-8 Plain Text
Duration : 1 h 26 min
Bit rate : 74 b/s
Count of elements : 1366
Stream size : 47.4 KiB (0%)
Title : Full
Language : English
Default : No
Forced : No

Text #3
ID : 9
Format : UTF-8
Codec ID : S_TEXT/UTF8
Codec ID/Info : UTF-8 Plain Text
Duration : 1 h 27 min
Bit rate : 86 b/s
Count of elements : 1845
Stream size : 55.1 KiB (0%)
Title : SDH
Language : English
Default : No
Forced : No

Menu
00:00:00.000 : en:00:00:00.000
00:07:22.692 : en:00:07:22.692
00:11:36.779 : en:00:11:36.779
00:15:46.404 : en:00:15:46.404
00:20:02.243 : en:00:20:02.243
00:25:21.436 : en:00:25:21.436
00:26:47.064 : en:00:26:47.064
00:30:10.183 : en:00:30:10.183
00:34:45.792 : en:00:34:45.792
00:36:02.285 : en:00:36:02.285
00:37:45.305 : en:00:37:45.305
00:41:27.360 : en:00:41:27.360
00:43:35.613 : en:00:43:35.613
00:45:19.508 : en:00:45:19.508
00:46:51.851 : en:00:46:51.851
00:50:02.458 : en:00:50:02.458
00:51:34.341 : en:00:51:34.341
00:56:12.160 : en:00:56:12.160
01:00:03.683 : en:01:00:03.683
01:01:17.841 : en:01:01:17.841
01:03:50.368 : en:01:03:50.368
01:06:27.191 : en:01:06:27.191
01:11:15.771 : en:01:11:15.771
01:13:40.541 : en:01:13:40.541
01:15:38.659 : en:01:15:38.659
01:20:00.337 : en:01:20:00.337
01:23:57.198 : en:01:23:57.198
01:26:18.339 : en:01:26:18.339

pb.wtf



Скачать Головоломка через торрент https://img16.lostpic.net/2019/09/09/3c79229d95ccc26e51e0ad8f13ef6bff.jpg Скачать фильм Головоломка через торрент бесплантно в хорошем качестве Описание: Райли — обычная 11-летняя школьница, и, как у каждого из нас, ее поведение определяют пять базовых эмоций: Радость, Печаль, ... 10 10 3
Торрент: Зарегистрирован [2019-09-09 17:40] · скачан: 1 раз
Статус: √ проверено
Размер: 39.47 GB
Как cкачать? Как скачать Головоломка через торрент | qTorrent

% Раздел Тема Автор DL S | L
Зарубежные Мультфильмы (BDRip 1080p, 720p, Blu-ray, BD-Remux) [ 4.47 GB ] Головоломка / Inside Out [2015 мультфильм BDRip 720p от _denis_100 / NNNB] DUB 2xAVO _denis_100 Скачать
1 | 0

28-11-2019 20:33  

Отключить всю рекламу на сайте

    Дорогой пользователь! Огромная просьба, поблагодарите релизера, оцените раздачу и оставьте свои комментарий, если Вы скачали Головоломка через торрент бесплатно! Внесите свою лепту в развитие PiratBit!
    Комментировать посты могут только пользователи прошедшие не сложную регистрацию
    Показать сообщения:    

    Головоломка через торрент
    Скачать бесплатно Головоломка
    Головоломка скачать торрент
    Головоломка смотреть онлайн
    Cкачать фильм Головоломка бесплатно
    Головоломка скачать торрент в хорошем качестве
    Головоломка смотреть онлайн бесплатно в хорошем качестве


    Вы не можете начинать темы
    Вы не можете отвечать на сообщения
    Вы не можете редактировать свои сообщения
    Вы не можете удалять свои сообщения
    Вы не можете голосовать в опросах
    Вы не можете прикреплять файлы к сообщениям
    Вы можете скачивать файлы