Ссылка на приватное зеркало всего за 1$. Внимание количество ограничено!!!

OK

1+1

iTunes

мы

OK

1

WEB-DLRip

Джокер

Пифагор

Ведьмак / The Witcher сериал

iTunes

ПШазам

ОК

Оно 2

iTunes

30
pack

Вам бонус

ВАЖНО

!!Акция!!

Alien_RageХит недели

RePack

Resident Evil 21

ИГРА 18+

pack

RePack

jed

RePack

fifa19

RePack

Assassins Creed: Odyssey

RePack

NEED FOR SPEED™ PAYBACK

4 сезон

9 сезон

Бесстыжие 9 сезон

Все сериалы

все сериалы на PB.wtf

RePack

FAR CRY 5
  

Небоскрёб / Skyscraper (Роусон Маршалл Тёрбер) [2018, боевик, триллер, драма, криминал, UHD BDRemux 2160p] [Dolby Vision TV] DUB [Лицензия] pb.wtf

Небоскрёб через торрент pb.wtf

Размер: 57.99 GB | Добавлен: 4 мес. 16 д. назад | Торрент скачан:20 раз
Скачать  

10-09-2019 17:25 Небоскрёб Скачать торрент  

Небоскрёб / Skyscraper
Год выпуска: 2018
Страна: США
Жанр: боевик, триллер, драма, криминал
Продолжительность: 01:42:24
Перевод: Дублированный | Лицензия
Субтитры: отсутствуют

Режиссер: Роусон Маршалл Тёрбер

rating

В ролях:

Дуэйн Джонсон (Will Sawyer), Нив Кэмпбелл (Sarah Sawyer), Чинь Хань (Zhao Long Ji), Роланд Мюллер (Kores Botha), Ноа Тейлор (Mr. Pierce), Байрон Манн (Inspector Wu), Пабло Шрайбер (Ben), МакКенна Робертс (Georgia Sawyer), Ной Коттрелл (Henry Sawyer), Ханна Куинливан (Xia), Адриан Холмс (Ajani Okeke), Эльфина Люк (Sergeant Han)
Описание: Самый высокий и технологичный небоскрёб в мире становится центром огненной катастрофы. Только бывший агент ФБР, а теперь эксперт по безопасности Уилл Форд может спасти вертикальный город под небесами. Когда нельзя доверять никому, а жизнь семьи в опасности, каждая секунда на счету.

Качество: UHD BDRemux 2160p | Dolby Vision TV
Формат: MP4

Видео: HEVC HDR, 69.2 Mбит/с, 3840x2160, 23.976 Кадр/с
Аудио: Russian / Dolby Digital Audio / 5.1 / 48 kHz / 640 kbps
Данный вид релизов (контейнер MP4) предназначен для встроенного в ТВ (соответственно, с поддержкой DV) плеер.
Т.Е. Можно использовать как USB flash/HDD, так и DLNA / Plex - подобные сервисы/программы. дополнительный-внешний плеер не обязателен.

Внимание!
На моделях LG 2016 возможны сюрпризы "через раз", 2017-2018 должно идти без сюрпризов )
скриншот  скриншот  скриншот  

скриншот  скриншот  скриншот  

Общее
Полное имя : G:\Skyscraper.2018.DV.mp4
Формат : MPEG-4
Профиль формата : Base Media / Version 2
Идентификатор кодека : mp42 (mp42/dby1/isom)
Размер файла : 58,0 Гбайт
Продолжительность : 1 ч. 42 м.
Общий поток : 81,1 Мбит/сек
Дата кодирования : UTC 2019-09-10 13:36:32
Дата пометки : UTC 2019-09-10 13:36:32

Видео #1
Идентификатор : 1
Формат : HEVC
Формат/Информация : High Efficiency Video Coding
Профиль формата : Main 10@L5.1@High
HDR_Format/String : SMPTE ST 2086, HDR10 compatible
Идентификатор кодека : hev1
Идентификатор кодека/Информация : High Efficiency Video Coding
Продолжительность : 1 ч. 42 м.
Битрейт : 69,2 Мбит/сек
Ширина : 3840 пикселей
Высота : 2160 пикселей
Соотношение сторон : 16:9
Режим частоты кадров : Постоянный
Частота кадров : 23,976 (24000/1001) кадра/сек
Цветовое пространство : YUV
Субдискретизация насыщенности : 4:2:0 (Type 2)
Битовая глубина : 10 бит
Бит/(Пиксели*Кадры) : 0.348
Размер потока : 49,5 Гбайт (85%)
Default : Нет
Дата кодирования : UTC 2019-09-10 13:36:32
Дата пометки : UTC 2019-09-10 13:36:32
Цветовой диапазон : Limited
Основные цвета : BT.2020
Характеристики трансфера : PQ
Коэффициенты матрицы : BT.2020 non-constant
MasteringDisplay_ColorPrimaries : Display P3
MasteringDisplay_Luminance : min: 0.0050 cd/m2, max: 1000 cd/m2
MaxCLL : 1000 cd/m2
MaxFALL : 986 cd/m2
Codec configuration box : hvcC

Видео #2
Идентификатор : 2
Формат : HEVC
Формат/Информация : High Efficiency Video Coding
Профиль формата : Main 10@L5.1@High
HDR_Format/String : Dolby Vision, Version 1.0, dvhe.07.06, EL+RPU / SMPTE ST 2086, HDR10 compatible
Идентификатор кодека : dvhe
Идентификатор кодека/Информация : High Efficiency Video Coding with Dolby Vision
Продолжительность : 1 ч. 42 м.
Битрейт : 11,2 Мбит/сек
Ширина : 1920 пикселей
Высота : 1080 пикселей
Соотношение сторон : 16:9
Режим частоты кадров : Постоянный
Частота кадров : 23,976 (24000/1001) кадра/сек
Цветовое пространство : YUV
Субдискретизация насыщенности : 4:2:0 (Type 2)
Битовая глубина : 10 бит
Бит/(Пиксели*Кадры) : 0.226
Размер потока : 8,03 Гбайт (14%)
Default : Нет
Дата кодирования : UTC 2019-09-10 13:36:32
Дата пометки : UTC 2019-09-10 13:36:32
Цветовой диапазон : Limited
Основные цвета : BT.2020
Характеристики трансфера : PQ
Коэффициенты матрицы : BT.2020 non-constant
MasteringDisplay_ColorPrimaries : Display P3
MasteringDisplay_Luminance : min: 0.0050 cd/m2, max: 1000 cd/m2
Codec configuration box : hvcC+dvcC

Аудио
Идентификатор : 3
Формат : AC-3
Формат/Информация : Audio Coding 3
Коммерческое название : Dolby Digital
Идентификатор кодека : ac-3
Продолжительность : 1 ч. 42 м.
Вид битрейта : Постоянный
Битрейт : 640 Кбит/сек
Каналы : 6 каналов
ChannelLayout : L R C LFE Ls Rs
Частота : 48,0 КГц
Частота кадров : 31,250 кадров/сек (1536 SPF)
Битовая глубина : 16 бит
Метод сжатия : С потерями
Размер потока : 469 Мбайт (1%)
Язык : Russian
ServiceKind/String : Complete Main
Default : Нет
Дата кодирования : UTC 2019-09-10 13:36:32
Дата пометки : UTC 2019-09-10 13:36:32

pb.wtf



Скачать Небоскрёб через торрент https://a.radikal.ru/a15/1804/77/25bd8085c8d9.png Скачать фильм Небоскрёб через торрент бесплантно в хорошем качестве Описание: Самый высокий и технологичный небоскрёб в мире становится центром огненной катастрофы. Только бывший агент ФБР, а теперь эксперт ... 8.2 10 5
Торрент: Зарегистрирован [2019-09-10 17:25] · скачан: 20 раз
Статус: √ проверено
Размер: 57.99 GB
Как cкачать? Как скачать Небоскрёб через торрент | qTorrent

% Раздел Тема Автор DL S | L
Фильмы [HD 720p, 1080p] (Хороший звук DUB, MVO) [ 10.72 GB ] Небоскреб / Skyscraper [2018 BDRip 1080p] DUB sheker187 Скачать
2 | 0
Фильмы с авторской озвучкой [ 1.46 GB ] Небоскреб / Skyscraper [2018 BDRip] [AVO] killermax2013 Скачать
1 | 0
Фильмы 2018 [DVDrip, WEB-DLRip, HDrip] (DUB, MVO) [ 1.45 GB ] Небоскрёб / Skyscraper [2018 BDRip-AVC] DUB [ ] bober100 Скачать
2 | 0
Ultra HD (UHD: 2K, 4K, 8K) — видео сверхвысокой чёткости [ 83.22 GB ] Небоскреб / Skyscraper [2018 UHD Blu-ray 2160p] DUB [] [HDR + Dolby Vision] sheker187 Скачать
1 | 0
Ultra HD (UHD: 2K, 4K, 8K) — видео сверхвысокой чёткости [ 52.45 GB ] Небоскреб / Skyscraper [2018 UHD BDRemux 2160p] DUB [] sheker187 Скачать
1 | 0
3D Фильмы [ 19.53 GB ] Небоскреб в 3Д / Skyscraper 3D [2018 BDRip 1080p] OverUnder / Вертикальная стереопара serega768 Скачать
1 | 0
Ultra HD (UHD: 2K, 4K, 8K) — видео сверхвысокой чёткости [ 26.48 GB ] Небоскреб / Skyscraper [2018 UHD BDRip 2160p] [SDR] DUB [] sheker187 Скачать
1 | 0

28-11-2019 20:33  

Отключить всю рекламу на сайте

    Дорогой пользователь! Огромная просьба, поблагодарите релизера, оцените раздачу и оставьте свои комментарий, если Вы скачали Небоскрёб через торрент бесплатно! Внесите свою лепту в развитие PiratBit!
    Комментировать посты могут только пользователи прошедшие не сложную регистрацию
    Показать сообщения:    

    Небоскрёб через торрент
    Скачать бесплатно Небоскрёб
    Небоскрёб скачать торрент
    Небоскрёб смотреть онлайн
    Cкачать фильм Небоскрёб бесплатно
    Небоскрёб скачать торрент в хорошем качестве
    Небоскрёб смотреть онлайн бесплатно в хорошем качестве


    Вы не можете начинать темы
    Вы не можете отвечать на сообщения
    Вы не можете редактировать свои сообщения
    Вы не можете удалять свои сообщения
    Вы не можете голосовать в опросах
    Вы не можете прикреплять файлы к сообщениям
    Вы можете скачивать файлы