Всегда рабочее зеркало без VPN и Proxy просто перед .vidak.icu напиши любое слово или цифру, Пример http://vw92.vidak.icu

MVO

2 сезон

2 сезон

1

1 сезон

iTunes

2 сезон

13

1 сезон

Deluxe

pack

Рекомендуем

Пиратка

30

ВАЖНО

RePack

MK11

RePack

jed

RePack

fifa19

RePack

RDR2

RePack

NEED FOR SPEED™ PAYBACK

Кинопоиск HD

6 сезон

 Острые козырьки 6 сезон

Все сериалы

все сериалы на PB.wtf

RePack

FAR CRY 5

Anonymous, нам критически не хватает 5601 руб. на оплату серверов и переферии за Апрель, помоги нам пожалуйста, вся надежда только на тебя. В благодарность мы отключим тебе всю рекламу на сайте!

×
  
Magnet ссылка

Детские игры / Child's Play (Ларс Клевберг) [2019 г., ужасы, WEB-DL 1080p] [Ukr DUB] pb.wtf

Детские игры через торрент pb.wtf

Размер: 3.24 GB | Добавлен: 2 года 8 мес. назад | Торрент скачан:10 раз
Смотреть онлайн Детские игры | Скачать    Ребята, помогите собрать деньги на оплату серверов!!!

10-09-2019 17:57 Детские игры Скачать торрент  

Детские игры / Child's Play
Год выпуска: 2019
Страна: Франция, Канада, США
Жанр: ужасы
Продолжительность: 01:29:18
Перевод: Украинский (дублированный)

Субтитры: english

Режиссер: Ларс Клевберг

В ролях: Гэбриел Бейтман, Обри Плаза, Марк Хэмилл, Брайан Тайри Генри, Тим Мэтисон, Дэвид Льюис, Ти Консильо, Марлон Казади, Беатрис Китсос, Ханна Дрю, Трент Редекоп, Эмбер Тейлор, Карлис Бёрк, Николь Энтони, Джонсон Фэн, Кристин Йорк, Миа Белла, Амро Майзуб, Вину Сандху, Оливия Пун, Кеннет Тайнен

Описание: Карэн со своим тринадцатилетним сыном Энди недавно переехали в другой город. Мальчику довольно сложно обзавестись компанией друзей из-за своей природной стеснительности. Мама видит, что сын находится постоянно в одиночестве и принимает решение купить ему куклу. Карэн надеется, что ее мальчику станет проще заводить себе друзей. Куклу называют Чаки. Но внезапно Энди замечает, что игрушка странно себя ведет...

ratingскриншот  

Качество: WEB-DL 1080p
Формат: MKV
Видео: AVC, 1912x800, 23.976 fps, 4 600 Кбит/с
Аудио 1: AC3, 48.0 KHz, 192 Кбит/с, 2 ch - Ukr DUB
Аудио 2: AC3, 48.0 KHz, 384 Кбит/с, 6 ch - Eng
General
Complete name : Child's Play (2019) WEB-DL 1080p [ukr,eng] [ViDeO_Hurtom].mkv
Format : Matroska
Format version : Version 4
File size : 3.24 GiB
Duration : 1 h 29 min
Overall bit rate : 5 150 kb/s
Movie name : Child's Play (2019) WEB-DL 1080p [ukr,eng] [ViDeO_Hurtom]
Encoded date : UTC 2019-09-10 10:39:25
Writing application : mkvmerge v30.1.0 ('Forever And More') 64-bit
Writing library : libebml v1.3.6 + libmatroska v1.4.9
Cover : Yes
Attachments : cover.jpg.jpg

Video
ID : 1
Format : AVC
Format/Info : Advanced Video Codec
Format profile : High@L4
Format settings : CABAC / 5 Ref Frames
Format settings, CABAC : Yes
Format settings, RefFrames : 5 frames
Codec ID : V_MPEG4/ISO/AVC
Duration : 1 h 29 min
Bit rate : 4 571 kb/s
Width : 1 912 pixels
Height : 800 pixels
Display aspect ratio : 2.40:1
Frame rate mode : Constant
Frame rate : 23.976 (23976/1000) FPS
Color space : YUV
Chroma subsampling : 4:2:0
Bit depth : 8 bits
Scan type : Progressive
Bits/(Pixel*Frame) : 0.125
Stream size : 2.87 GiB (89%)
Title : Childs Play.2019.1080p.WEB-DL.DD5.1.H264-FGT
Language : English
Default : Yes
Forced : No
Color range : Limited
Color primaries : BT.709
Transfer characteristics : BT.709
Matrix coefficients : BT.709

Audio #1
ID : 2
Format : AC-3
Format/Info : Audio Coding 3
Commercial name : Dolby Digital
Codec ID : A_AC3
Duration : 1 h 29 min
Bit rate mode : Constant
Bit rate : 192 kb/s
Channel(s) : 2 channels
Channel layout : L R
Sampling rate : 48.0 kHz
Frame rate : 31.250 FPS (1536 SPF)
Bit depth : 16 bits
Compression mode : Lossy
Delay relative to video : -42 ms
Stream size : 124 MiB (4%)
Title : AC3 2.0 | 192 Kbps
Language : Ukrainian
Service kind : Complete Main
Default : Yes
Forced : No

Audio #2
ID : 3
Format : AC-3
Format/Info : Audio Coding 3
Commercial name : Dolby Digital
Codec ID : A_AC3
Duration : 1 h 29 min
Bit rate mode : Constant
Bit rate : 384 kb/s
Channel(s) : 6 channels
Channel layout : L R C LFE Ls Rs
Sampling rate : 48.0 kHz
Frame rate : 31.250 FPS (1536 SPF)
Bit depth : 16 bits
Compression mode : Lossy
Delay relative to video : -42 ms
Stream size : 247 MiB (7%)
Title : AC3 5.1 | 384 Kbps
Language : English
Service kind : Complete Main
Default : No
Forced : No

Text
ID : 4
Format : UTF-8
Codec ID : S_TEXT/UTF8
Codec ID/Info : UTF-8 Plain Text
Duration : 1 h 23 min
Bit rate : 52 b/s
Count of elements : 1227
Stream size : 32.1 KiB (0%)
Title : Full
Language : English
Default : Yes
Forced : No

Menu
00:00:00.000 : en:1
00:12:00.000 : en:2
00:24:01.000 : en:3
00:32:38.000 : en:4
00:40:53.000 : en:5
00:56:44.000 : en:6
01:06:58.000 : en:7
01:16:40.000 : en:8
01:23:51.000 : en:9
скриншот  скриншот  скриншот  
pb.wtf



Скачать Детские игры через торрент https://i106.fastpic.ru/big/2019/0910/ce/f70671ddd191d52a7ec02f14fe71d2ce.jpg Скачать, смотреть онлайн Детские игры бесплантно в хорошем качестве Описание: Карэн со своим тринадцатилетним сыном Энди недавно переехали в другой город. Мальчику довольно сложно обзавестись компанией ... 10 10 4
Торрент: Зарегистрирован [2019-09-10 17:57] · скачан: 10 раз
Статус: √ проверено
Размер: 3.24 GB
Как cкачать? Как скачать Детские игры через торрент | UTorrent

28-11-2019 20:33  

Отключить всю рекламу на сайте

11-09-2019 05:57 Детские игры Скачать торрент  

а с русским дубляжом будет?pb.wtf



    Дорогой пользователь! Огромная просьба, поблагодарите релизера, оцените раздачу и оставьте свои комментарий, если Вы скачали Детские игры через торрент бесплатно!
    Комментировать посты могут только пользователи прошедшие не сложную регистрацию
    Показать сообщения:    

    Детские игры через торрент
    Скачать бесплатно Детские игры
    Детские игры скачать торрент
    Детские игры смотреть онлайн
    Cкачать фильм Детские игры бесплатно
    Детские игры скачать торрент в хорошем качестве
    Детские игры смотреть онлайн бесплатно в хорошем качестве


    Вы не можете начинать темы
    Вы не можете отвечать на сообщения
    Вы не можете редактировать свои сообщения
    Вы не можете удалять свои сообщения
    Вы не можете голосовать в опросах
    Вы не можете прикреплять файлы к сообщениям
    Вы можете скачивать файлы