новый адрес
Ссылка на приватное зеркало всего за 1$. Внимание количество ограничено!!!

iTunes

1+1

iTunes

мы

iTunes

1

iTunes

Чернобыль

iTunes

Ральф против интернета

Лицензия

ПШазам

Лицензия

Оно 2

Лицензия

30
pack

Вам бонус

ВАЖНО

!!Акция!!

Alien_RageХит недели

RePack

Resident Evil 21

ИГРА 18+

pack

RePack

jed

!!Акция!!

Alien_Rage

RePack

fifa19

RePack

Assassins Creed: Odyssey

RePack

NEED FOR SPEED™ PAYBACK

3 сезон

9 сезон

Бесстыжие 9 сезон

Все сериалы

все сериалы на PB.wtf

RePack

FAR CRY 5
Ребята, катастрофически не хватает 1900р. для оплаты серверов за Октябрь (всвязи с блокировками трафик упал в 3 раза), 1-2р., выручайте.
  

Тёмный кристалл: Эпоха сопротивления / The Dark Crystal: Age of Resistance / Сезон: 1 / Серии: 1-10 из 10 (Луи Летерье) [2019, фэнтези, приключения, мультфильм, WEB-DL 720p] MVO [AlexFilm] pb.wtf

Тёмный кристалл: Эпоха сопротивления через торрент pb.wtf

Размер: 12.08 GB | Добавлен: 2 мес. назад | Торрент скачан:7 раз
Скачать  

10-09-2019 19:48 Тёмный кристалл: Эпоха сопротивления Скачать торрент  

Тёмный кристалл: Эпоха сопротивления
The Dark Crystal: Age of Resistance
Год выпуска: 2019
Страна: Великобритания, США
Жанр: фэнтези, приключения, мультфильм
Продолжительность: ~ 01:00:00 мин
Перевод: профессиональное, многоголосое, закадровое | AlexFilm
Субтитры: English, English SDH, Arabic, Czech, Danish, German, Greek, Spanish, Finnish, French, Hebrew, Hungarian, Indonesian, Italian, Japanese, Korean, Norwegian Bokmal, Dutch, Polish, Portuguese, Portuguese Brazilian, Romanian, Russian, Swedish, Thai, Turkish, Vietnamese, Chinese, Chinese Traditional.

Режиссер: Луи Летерье

В ролях: Орландо Блум, Бекки Хендерсон, Нил Стеренберг, Натали Эммануэль, Виктор Йеррид, Тэрон Эджертон, Аня Тейлор-Джой, Элис Диннеан, Дэйв Чэпман, Уоррик Броунлоу-Пайк, Джейсон Айзекс и др.

Описание: Гелфлинги Риан, Бреа и Дит выясняют, что зловещие скексисы повредили волшебный кристалл, подпитывающий жизнь в мире. Именно благодаря им начинается восстание, способное уничтожить жестоких захватчиков.

Релиз:

Перевод: Наталья Зимина
Монтаж и сведение звука: Герман Гарика
Роли озвучивали:

Татьяна Манетина
Екатерина Муравицкая
Дмитрий Лунёв
Алексей Никитин
Михаил Цареградский
Кирилл Патрино

Сэмпл: http://sendfile.su/1515589


Качество: WEB-DL 720p
Формат: MKV

Видео: 1280х720 (16:9), 23.976 fps, MPEG-4 AVC ~3000 kbps avg, 0.136 bit/pixel
Аудио Rus: 48 kHz, AC3 Dolby Digital, 3/2 (L,C,R,l,r) + LFE ch, ~384.00 kbps
Аудио Eng: 48 kHz, AC3 Dolby Digital, 3/2 (L,C,R,l,r) + LFE ch, ~384.00 kbps


Реклама: аудио (два раза, в начале 10 и в конце 10 сек.)
" rel="gallery" target="_blank" class="postLink fancybox fancybox-media">
Формат : Matroska
Версия формата : Version 4 / Version 2
Размер файла : 1,59 Гбайт
Продолжительность : 1 ч. 1 м.
Режим общего битрейта : Переменный
Общий поток : 3725 Кбит/сек
Название фильма : The Dark Crystal: Age of Resistance 1x01 @ AlexFilm
Дата кодирования : UTC 2019-09-10 15:04:24
Программа кодирования : mkvmerge v7.9.0 ('Birds') 64bit
Библиотека кодирования : libebml v1.3.1 + libmatroska v1.4.2

Видео
Идентификатор : 1
Формат : AVC
Формат/Информация : Advanced Video Codec
Профиль формата : Main@L3.1
Параметр CABAC формата : Да
Параметр ReFrames формата : 3 кадра
Идентификатор кодека : V_MPEG4/ISO/AVC
Продолжительность : 1 ч. 1 м.
Вид битрейта : Переменный
Битрейт : 3010 Кбит/сек
Максимальный битрейт : 4515 Кбит/сек
Ширина : 1280 пикселей
Высота : 720 пикселей
Соотношение сторон : 16:9
Режим частоты кадров : Постоянный
Частота кадров : 23,976 (24000/1001) кадра/сек
Цветовое пространство : YUV
Субдискретизация насыщенности : 4:2:0
Битовая глубина : 8 бит
Тип развёртки : Прогрессивная
Бит/(Пиксели*Кадры) : 0.136
Размер потока : 1,26 Гбайт (79%)
Библиотека кодирования : x264 core 148 r2715 7e75228
Настройки программы : cabac=1 / ref=3 / deblock=1:0:0 / analyse=0x1:0x111 / me=umh / subme=10 / psy=1 / psy_rd=1.00:0.00 / mixed_ref=1 / me_range=24 / chroma_me=1 / trellis=2 / 8x8dct=0 / cqm=0 / deadzone=21,11 / fast_pskip=1 / chroma_qp_offset=-2 / threads=8 / lookahead_threads=1 / sliced_threads=0 / nr=0 / decimate=1 / interlaced=0 / bluray_compat=0 / stitchable=1 / constrained_intra=0 / bframes=2 / b_pyramid=0 / b_adapt=2 / b_bias=0 / direct=3 / weightb=1 / open_gop=0 / weightp=2 / keyint=250 / keyint_min=23 / scenecut=0 / intra_refresh=0 / rc_lookahead=48 / rc=2pass / mbtree=1 / bitrate=3010 / ratetol=1.0 / qcomp=0.50 / qpmin=6 / qpmax=51 / qpstep=4 / cplxblur=20.0 / qblur=0.5 / vbv_maxrate=4515 / vbv_bufsize=6020 / nal_hrd=vbr / filler=0 / ip_ratio=1.40 / aq=1:1.00
Default : Да
Forced : Нет

Аудио #1
Идентификатор : 2
Формат : AC-3
Формат/Информация : Audio Coding 3
Расширение режима : CM (complete main)
Параметр Endianness формата : Big
Идентификатор кодека : A_AC3
Продолжительность : 1 ч. 1 м.
Вид битрейта : Постоянный
Битрейт : 384 Кбит/сек
Каналы : 6 каналов
Расположение каналов : Front: L C R, Side: L R, LFE
Частота : 48,0 КГц
Частота кадров : 31,250 кадров/сек (1536 spf)
Метод сжатия : С потерями
Размер потока : 168 Мбайт (10%)
Заголовок : DD5.1 AlexFilm
Язык : Russian
Default : Да
Forced : Нет

Аудио #2
Идентификатор : 3
Формат : AC-3
Формат/Информация : Audio Coding 3
Расширение режима : CM (complete main)
Параметр Endianness формата : Big
Идентификатор кодека : A_AC3
Продолжительность : 1 ч. 1 м.
Вид битрейта : Постоянный
Битрейт : 384 Кбит/сек
Каналы : 6 каналов
Расположение каналов : Front: L C R, Side: L R, LFE
Частота : 48,0 КГц
Частота кадров : 31,250 кадров/сек (1536 spf)
Метод сжатия : С потерями
Размер потока : 168 Мбайт (10%)
Заголовок : DD5.1 Original
Язык : English
Default : Нет
Forced : Нет

Текст #1
Идентификатор : 4
Формат : UTF-8
Идентификатор кодека : S_TEXT/UTF8
Идентификатор кодека/Информация : UTF-8 Plain Text
Продолжительность : 57 м. 58 с.
Битрейт : 52 бит/сек
Count of elements : 788
Размер потока : 22,2 Кбайт (0%)
Язык : English
Default : Нет
Forced : Нет

Текст #2
Идентификатор : 5
Формат : UTF-8
Идентификатор кодека : S_TEXT/UTF8
Идентификатор кодека/Информация : UTF-8 Plain Text
Продолжительность : 58 м. 27 с.
Битрейт : 68 бит/сек
Count of elements : 1049
Размер потока : 29,2 Кбайт (0%)
Заголовок : SDH
Язык : English
Default : Нет
Forced : Нет

Текст #3
Идентификатор : 6
Формат : UTF-8
Идентификатор кодека : S_TEXT/UTF8
Идентификатор кодека/Информация : UTF-8 Plain Text
Продолжительность : 59 м. 42 с.
Битрейт : 84 бит/сек
Count of elements : 730
Размер потока : 37,0 Кбайт (0%)
Язык : Arabic
Default : Нет
Forced : Нет

Текст #4
Идентификатор : 7
Формат : UTF-8
Идентификатор кодека : S_TEXT/UTF8
Идентификатор кодека/Информация : UTF-8 Plain Text
Продолжительность : 59 м. 43 с.
Битрейт : 49 бит/сек
Count of elements : 729
Размер потока : 21,8 Кбайт (0%)
Язык : Czech
Default : Нет
Forced : Нет

Текст #5
Идентификатор : 8
Формат : UTF-8
Идентификатор кодека : S_TEXT/UTF8
Идентификатор кодека/Информация : UTF-8 Plain Text
Продолжительность : 59 м. 42 с.
Битрейт : 49 бит/сек
Count of elements : 715
Размер потока : 21,8 Кбайт (0%)
Язык : Danish
Default : Нет
Forced : Нет

Текст #6
Идентификатор : 9
Формат : UTF-8
Идентификатор кодека : S_TEXT/UTF8
Идентификатор кодека/Информация : UTF-8 Plain Text
Продолжительность : 58 м. 46 с.
Битрейт : 52 бит/сек
Count of elements : 710
Размер потока : 22,4 Кбайт (0%)
Язык : German
Default : Нет
Forced : Нет

Текст #7
Идентификатор : 10
Формат : UTF-8
Идентификатор кодека : S_TEXT/UTF8
Идентификатор кодека/Информация : UTF-8 Plain Text
Продолжительность : 59 м. 42 с.
Битрейт : 86 бит/сек
Count of elements : 758
Размер потока : 37,8 Кбайт (0%)
Язык : Greek
Default : Нет
Forced : Нет

Текст #8
Идентификатор : 11
Формат : UTF-8
Идентификатор кодека : S_TEXT/UTF8
Идентификатор кодека/Информация : UTF-8 Plain Text
Продолжительность : 59 м. 42 с.
Битрейт : 51 бит/сек
Count of elements : 730
Размер потока : 22,4 Кбайт (0%)
Язык : Spanish
Default : Нет
Forced : Нет

Текст #9
Идентификатор : 12
Формат : UTF-8
Идентификатор кодека : S_TEXT/UTF8
Идентификатор кодека/Информация : UTF-8 Plain Text
Продолжительность : 59 м. 43 с.
Битрейт : 52 бит/сек
Count of elements : 723
Размер потока : 22,9 Кбайт (0%)
Заголовок : European
Язык : Spanish
Default : Нет
Forced : Нет

Текст #10
Идентификатор : 13
Формат : UTF-8
Идентификатор кодека : S_TEXT/UTF8
Идентификатор кодека/Информация : UTF-8 Plain Text
Продолжительность : 59 м. 43 с.
Битрейт : 49 бит/сек
Count of elements : 601
Размер потока : 21,8 Кбайт (0%)
Язык : Finnish
Default : Нет
Forced : Нет

Текст #11
Идентификатор : 14
Формат : UTF-8
Идентификатор кодека : S_TEXT/UTF8
Идентификатор кодека/Информация : UTF-8 Plain Text
Продолжительность : 59 м. 43 с.
Битрейт : 52 бит/сек
Count of elements : 725
Размер потока : 22,8 Кбайт (0%)
Язык : French
Default : Нет
Forced : Нет

Текст #12
Идентификатор : 15
Формат : UTF-8
Идентификатор кодека : S_TEXT/UTF8
Идентификатор кодека/Информация : UTF-8 Plain Text
Продолжительность : 59 м. 42 с.
Битрейт : 73 бит/сек
Count of elements : 735
Размер потока : 32,1 Кбайт (0%)
Язык : Hebrew
Default : Нет
Forced : Нет

Текст #13
Идентификатор : 16
Формат : UTF-8
Идентификатор кодека : S_TEXT/UTF8
Идентификатор кодека/Информация : UTF-8 Plain Text
Продолжительность : 59 м. 42 с.
Битрейт : 52 бит/сек
Count of elements : 731
Размер потока : 23,0 Кбайт (0%)
Язык : Hungarian
Default : Нет
Forced : Нет

Текст #14
Идентификатор : 17
Формат : UTF-8
Идентификатор кодека : S_TEXT/UTF8
Идентификатор кодека/Информация : UTF-8 Plain Text
Продолжительность : 59 м. 42 с.
Битрейт : 49 бит/сек
Count of elements : 733
Размер потока : 21,6 Кбайт (0%)
Язык : Indonesian
Default : Нет
Forced : Нет

Текст #15
Идентификатор : 18
Формат : UTF-8
Идентификатор кодека : S_TEXT/UTF8
Идентификатор кодека/Информация : UTF-8 Plain Text
Продолжительность : 59 м. 43 с.
Битрейт : 52 бит/сек
Count of elements : 739
Размер потока : 22,9 Кбайт (0%)
Язык : Italian
Default : Нет
Forced : Нет

Текст #16
Идентификатор : 19
Формат : UTF-8
Идентификатор кодека : S_TEXT/UTF8
Идентификатор кодека/Информация : UTF-8 Plain Text
Продолжительность : 59 м. 42 с.
Битрейт : 62 бит/сек
Count of elements : 770
Размер потока : 27,3 Кбайт (0%)
Язык : Japanese
Default : Нет
Forced : Нет

Текст #17
Идентификатор : 20
Формат : UTF-8
Идентификатор кодека : S_TEXT/UTF8
Идентификатор кодека/Информация : UTF-8 Plain Text
Продолжительность : 59 м. 43 с.
Битрейт : 60 бит/сек
Count of elements : 740
Размер потока : 26,5 Кбайт (0%)
Язык : Korean
Default : Нет
Forced : Нет

Текст #18
Идентификатор : 21
Формат : UTF-8
Идентификатор кодека : S_TEXT/UTF8
Идентификатор кодека/Информация : UTF-8 Plain Text
Продолжительность : 59 м. 42 с.
Битрейт : 48 бит/сек
Count of elements : 726
Размер потока : 21,0 Кбайт (0%)
Язык : Norwegian Bokmal
Default : Нет
Forced : Нет

Текст #19
Идентификатор : 22
Формат : UTF-8
Идентификатор кодека : S_TEXT/UTF8
Идентификатор кодека/Информация : UTF-8 Plain Text
Продолжительность : 59 м. 42 с.
Битрейт : 44 бит/сек
Count of elements : 704
Размер потока : 19,5 Кбайт (0%)
Язык : Dutch
Default : Нет
Forced : Нет

Текст #20
Идентификатор : 23
Формат : UTF-8
Идентификатор кодека : S_TEXT/UTF8
Идентификатор кодека/Информация : UTF-8 Plain Text
Продолжительность : 59 м. 42 с.
Битрейт : 48 бит/сек
Count of elements : 725
Размер потока : 21,3 Кбайт (0%)
Язык : Polish
Default : Нет
Forced : Нет

Текст #21
Идентификатор : 24
Формат : UTF-8
Идентификатор кодека : S_TEXT/UTF8
Идентификатор кодека/Информация : UTF-8 Plain Text
Продолжительность : 59 м. 42 с.
Битрейт : 51 бит/сек
Count of elements : 722
Размер потока : 22,6 Кбайт (0%)
Язык : Portuguese
Default : Нет
Forced : Нет

Текст #22
Идентификатор : 25
Формат : UTF-8
Идентификатор кодека : S_TEXT/UTF8
Идентификатор кодека/Информация : UTF-8 Plain Text
Продолжительность : 59 м. 42 с.
Битрейт : 49 бит/сек
Count of elements : 707
Размер потока : 21,6 Кбайт (0%)
Заголовок : Brazilian
Язык : Portuguese
Default : Нет
Forced : Нет

Текст #23
Идентификатор : 26
Формат : UTF-8
Идентификатор кодека : S_TEXT/UTF8
Идентификатор кодека/Информация : UTF-8 Plain Text
Продолжительность : 58 м. 32 с.
Битрейт : 56 бит/сек
Count of elements : 712
Размер потока : 24,4 Кбайт (0%)
Язык : Romanian
Default : Нет
Forced : Нет

Текст #24
Идентификатор : 27
Формат : UTF-8
Идентификатор кодека : S_TEXT/UTF8
Идентификатор кодека/Информация : UTF-8 Plain Text
Продолжительность : 59 м. 42 с.
Битрейт : 74 бит/сек
Count of elements : 746
Размер потока : 32,5 Кбайт (0%)
Язык : Russian
Default : Нет
Forced : Нет

Текст #25
Идентификатор : 28
Формат : UTF-8
Идентификатор кодека : S_TEXT/UTF8
Идентификатор кодека/Информация : UTF-8 Plain Text
Продолжительность : 59 м. 42 с.
Битрейт : 50 бит/сек
Count of elements : 619
Размер потока : 22,0 Кбайт (0%)
Язык : Swedish
Default : Нет
Forced : Нет

Текст #26
Идентификатор : 29
Формат : UTF-8
Идентификатор кодека : S_TEXT/UTF8
Идентификатор кодека/Информация : UTF-8 Plain Text
Продолжительность : 59 м. 42 с.
Битрейт : 135 бит/сек
Count of elements : 732
Размер потока : 59,2 Кбайт (0%)
Язык : Thai
Default : Нет
Forced : Нет

Текст #27
Идентификатор : 30
Формат : UTF-8
Идентификатор кодека : S_TEXT/UTF8
Идентификатор кодека/Информация : UTF-8 Plain Text
Продолжительность : 59 м. 42 с.
Битрейт : 51 бит/сек
Count of elements : 732
Размер потока : 22,4 Кбайт (0%)
Язык : Turkish
Default : Нет
Forced : Нет

Текст #28
Идентификатор : 31
Формат : UTF-8
Идентификатор кодека : S_TEXT/UTF8
Идентификатор кодека/Информация : UTF-8 Plain Text
Продолжительность : 59 м. 42 с.
Битрейт : 67 бит/сек
Count of elements : 734
Размер потока : 29,4 Кбайт (0%)
Язык : Vietnamese
Default : Нет
Forced : Нет

Текст #29
Идентификатор : 32
Формат : UTF-8
Идентификатор кодека : S_TEXT/UTF8
Идентификатор кодека/Информация : UTF-8 Plain Text
Продолжительность : 59 м. 42 с.
Битрейт : 51 бит/сек
Count of elements : 728
Размер потока : 22,6 Кбайт (0%)
Заголовок : Simplified
Язык : Chinese
Default : Нет
Forced : Нет

Текст #30
Идентификатор : 33
Формат : UTF-8
Идентификатор кодека : S_TEXT/UTF8
Идентификатор кодека/Информация : UTF-8 Plain Text
Продолжительность : 59 м. 42 с.
Битрейт : 51 бит/сек
Count of elements : 732
Размер потока : 22,5 Кбайт (0%)
Заголовок : Traditional
Язык : Chinese
Default : Нет
Forced : Нет
Внимание! Раздача ведётся путём добавления новых серий; при каждом добавлении создаётся новый торрент. Чтобы начать докачку новой серии, пользователям необходимо сделать следующее:
(1) остановить скачивание,
(2) удалить старый торрент у себя из клиента (старые серии удалять не надо),
(3) скачать новый торрент и запустить его у себя в клиенте вместо старого, при этом указать клиенту путь в старую папку куда и должно происходить скачивание новых серий.
Ваш клиент при этом должен произвести хеширование (проверку) старой папки (если не производит сам - помогите ему сделать это), и будет докачивать только те серии которых у вас ещё нет. Старые серии при этом не удаляются, а продолжают раздаваться!
Eсли вы уже удалили старые серии, то предотвратить повторную закачку старых серий можно, отжав галочку в соответствующих местах при запуске нового торрента. По возможности, желательно не удалять старые серии как можно дольше чтобы релизёр не столько продолжал раздавать старые серии, а смог сконцентрироваться на новых.
pb.wtf



Скачать Тёмный кристалл: Эпоха сопротивления через торрент https://i89.fastpic.ru/big/2019/0910/db/f8135cb6f64b7b399561fa3775059edb.jpg Скачать фильм Тёмный кристалл: Эпоха сопротивления через торрент бесплантно в хорошем качестве Описание: Гелфлинги Риан, Бреа и Дит выясняют, что зловещие скексисы повредили волшебный кристалл, подпитывающий жизнь в мире. Именно ... 10 10 2
Торрент: Зарегистрирован [2019-09-22 00:02] · скачан: 7 раз
Статус: √ проверено
Размер: 12.08 GB
Как cкачать? Как скачать Тёмный кристалл: Эпоха сопротивления через торрент | qTorrent

% Раздел Тема Автор DL S | L
Ultra HD (UHD: 2K, 4K, 8K) [ 71.4 GB ] Тёмный кристалл: Эпоха сопротивления / The Dark Crystal: Age of Resistance / Сезон: 1 / Серии: 1-10 из 10 [2019 UHD WEB-DL 2160p] DUB [Пифагор] bober100 Скачать
1 | 0
Мультсериалы [ 21.26 GB ] Тёмный кристалл: Эпоха сопротивления / The Dark Crystal: Age of Resistance / Сезон: 1 / Серия: 1-10 из 10 [2019 WEB-DL 1080p] MVO [TVShows] bober100 Скачать
1 | 0
Мультсериалы [ 19.9 GB ] Тёмный кристалл: Эпоха сопротивления / The Dark Crystal: Age of Resistance / Сезон: 1 / Серия: 1-10 из 10 [2019 WEB-DL 1080p] MVO [AlexFilm] bober100 Скачать
1 | 0
Мультсериалы [ 13.89 GB ] Тёмный кристалл: Эпоха сопротивления / The Dark Crystal: Age of Resistance / Сезон: 1 / Серии: 1-10 из 10 [2019 WEB-DL 720p] DUB [Пифагор] bober100 Скачать
2 | 6
Мультсериалы [ 8.48 GB ] Тёмный кристалл: Эпоха сопротивления / The Dark Crystal: Age of Resistance / Сезон: 1 / Серии: 1-10 из 10 [2019 WEB-DLRip] DUB [Пифагор] bober100 Скачать
3 | 0
Мультсериалы [ 22.17 GB ] Тёмный кристалл: Эпоха сопротивления / The Dark Crystal: Age of Resistance / Сезон: 1 / Серии: 1-10 из 10 [2019 WEBRip 1080p] DUB [Пифагор] bober100 Скачать
2 | 0


>> Переходим по ссылке <<
Автоматически подгузится скрипт который настроит ваш браузер на выигрыш!!
После настройки браузера вероятность выигрыша увеличется в 4.1-4,6 раза.
В течение 6 секунд вам откроется настроенный интерфейс казино, с повышенной вероятностью выигрыша.






Отзывы и комментарии о схеме читаем и пишем здесь: ---> Отзывы и комментарии о схеме

Новые благодарочки в телеграм довольных пользователей:
скриншот   скриншот   скриншот   скриншот   скриншот
    Дорогой пользователь! Огромная просьба, поблагодарите релизера, оцените раздачу и оставьте свои комментарий, если Вы скачали Тёмный кристалл: Эпоха сопротивления через торрент бесплатно! Внесите свою лепту в развитие PiratBit!
    Комментировать посты могут только пользователи прошедшие не сложную регистрацию
    Показать сообщения:    

    Тёмный кристалл: Эпоха сопротивления через торрент
    Скачать бесплатно Тёмный кристалл: Эпоха сопротивления
    Тёмный кристалл: Эпоха сопротивления скачать торрент
    Тёмный кристалл: Эпоха сопротивления смотреть онлайн
    Cкачать фильм Тёмный кристалл: Эпоха сопротивления бесплатно
    Тёмный кристалл: Эпоха сопротивления скачать торрент в хорошем качестве
    Тёмный кристалл: Эпоха сопротивления смотреть онлайн бесплатно в хорошем качестве


    Вы не можете начинать темы
    Вы не можете отвечать на сообщения
    Вы не можете редактировать свои сообщения
    Вы не можете удалять свои сообщения
    Вы не можете голосовать в опросах
    Вы не можете прикреплять файлы к сообщениям
    Вы можете скачивать файлы