MEGA SALE -50% FORZA HORIZON 4 ULTIMATE+ВСЕ DLC+ОНЛАЙН всего за 599р. 299 руб. (супер цена). Внимание количество ограничено!!!

iTunes

1+1

iTunes

мы

iTunes

1

iTunes

Чернобыль

iTunes

Ральф против интернета

Лицензия

ПШазам

Лицензия

Игра престолов

Лицензия

30
pack

ВАЖНО

!!Акция!!

Alien_RageХит недели

RePack

Resident Evil 21

ИГРА 18+

pack

RePack

Metro:Exodus

!!Акция!!

Alien_Rage

RePack

fifa19

RePack

Assassins Creed: Odyssey

RePack

NEED FOR SPEED™ PAYBACK

3 сезон

9 сезон

Бесстыжие 9 сезон

Все сериалы

все сериалы на PB.wtf

RePack

FAR CRY 5
Ребята, катастрофически не хватает 7730р. для оплаты серверов за АВГУСТ (всвязи с блокировками трафик упал в 3 раза), 1-2р., выручайте.
  

Плюс один / Plus One (Джефф Чан, Эндрю Раймер) [2019, Драма, мелодрама, комедия, BDRip] DUB [iTunes] pb.wtf

Плюс один через торрент pb.wtf

Раздают: 13 [ 210 KB/s ]
Размер: 1.45 GB | Добавлен: 5 д. назад | Торрент скачан:46 раз
Скачать  

11-09-2019 10:42 Плюс один Скачать торрент  

Плюс один / Plus One
Год выпуска: 2019
Страна: США
Жанр: Драма, мелодрама, комедия
Продолжительность: 01:38:31
Перевод: Дублированный | iTunes
Субтитры: русские (форс. вшитые)

Режиссер: Джефф Чан, Эндрю Раймер

rating

В ролях: Майя Эрскин, Джек Куэйд, Эд Бегли мл., Алекс Анфанджер, Кирстен Армстронг, Дженнифер Бартельс, Джон Басс, Джо Бэйз, Эмма Белл, Бек Беннетт

Описание: Чтобы пережить лето полное свадеб, давние друзья-одиночки, Бен и Элис, соглашаются стать плюс один друг для друга на каждой свадьбе.

Качество: BDRip
Формат: AVI

Видео: Xvid 73, 720x304, ~1715 kbps, 23,976 fps
Аудио: русский, AC3, 5.1 ch, 48 kHz, 384 kbps | iTunes
скриншот  скриншот  скриншот  скриншот  скриншот  

Общее
Полное имя : G:Torrent2PlusOdinBDRip.avi
Формат : AVI
Формат/Информация : Audio Video Interleave
Профиль формата : OpenDML
Размер файла : 1,45 Гбайт
Продолжительность : 1 ч. 38 м.
Общий поток : 2111 Кбит/сек
Программа кодирования : XviD4PSP 6.0 / 53.6.0

Видео
Идентификатор : 0
Формат : MPEG-4 Visual
Профиль формата : Advanced Simple@L5
Настройки формата : BVOP1 / Custom Matrix
Параметр BVOP формата : 1
Параметр QPel формата : Нет
Параметр GMC формата : Без точки перехода
Параметр матрицы формата : Выборочная
Идентификатор кодека : XVID
Идентификатор кодека/Подсказка : XviD
Продолжительность : 1 ч. 38 м.
Битрейт : 1715 Кбит/сек
Ширина : 720 пикселей
Высота : 304 пикселя
Соотношение сторон : 2,35:1
Частота кадров : 23,976 (23976/1000) кадра/сек
Цветовое пространство : YUV
Субдискретизация насыщенности : 4:2:0
Битовая глубина : 8 бит
Тип развёртки : Прогрессивная
Метод сжатия : С потерями
Бит/(Пиксели*Кадры) : 0.327
Размер потока : 1,18 Гбайт (81%)
Библиотека кодирования : XviD 73

Аудио
Идентификатор : 1
Формат : AC-3
Формат/Информация : Audio Coding 3
Параметр Endianness формата : Big
Идентификатор кодека : 2000
Продолжительность : 1 ч. 38 м.
Вид битрейта : Постоянный
Битрейт : 384 Кбит/сек
Каналы : 6 каналов
Расположение каналов : Front: L C R, Side: L R, LFE
Частота : 48,0 КГц
Частота кадров : 31,250 кадров/сек (1536 SPF)
Битовая глубина : 16 бит
Метод сжатия : С потерями
Размер потока : 271 Мбайт (18%)
Выравнивание : Соединение по промежуткам
Продолжительность промежутка : 32 мс. (0,77 видеокадр)

pb.wtf



Скачать Плюс один через торрент http://lostpix.com/thumbs/2019-09/10/0ldvhwpnjb86mgbwk89vgtqke.png Скачать фильм Плюс один через торрент бесплантно в хорошем качестве Описание: Чтобы пережить лето полное свадеб, давние друзья-одиночки, Бен и Элис, соглашаются стать плюс один друг для друга на каждой ... 10 10 3
Info! Золотая раздача, скачанное не засчитывается.
Торрент: Зарегистрирован [2019-09-11 10:42] · скачан: 46 раз
Статус: √ проверено
Размер: 1.45 GB
Как cкачать? Как скачать Плюс один через торрент | qTorrent

% Раздел Тема Автор DL S | L
Фильмы 2019 [DVDrip, WEB-DLRip, HDrip] (DUB, MVO) [ 1.42 GB ] Плюс один / Plus One [2019 BDRip] - Twi7ter Скачать
35 | 1
Фильмы 2019 [DVDrip, WEB-DLRip, HDrip] (DUB, MVO) [ 1.82 GB ] Плюс один / Plus One [2019 BDRip-AVC] +MVO [HDRezka Studio] bober100 Скачать
5 | 0
Фильмы [HD 720p, 1080p] (Хороший звук DUB, MVO) [ 5.79 GB ] Плюс один / Plus One [2019 BDRip 1080p] +MVO [HDRezka Studio] bober100 Скачать
16 | 1
Фильмы [HD 720p, 1080p] (Хороший звук DUB, MVO) [ 3.3 GB ] Плюс один / Plus One [2019 BDRip 720p] +MVO [HDRezka Studio] bober100 Скачать
5 | 0
Гонзо [ 3.08 GB ] Плюс Один / Plus One [2016 All Sex Oral Gonzo Compilation Threesomes DVDRip 406p] Split CD sheker187 Скачать
1 | 1
Гонзо [ 5.12 GB ] Плюс Один / Plus One [2016 Compilation Threesomes WEB-DLRip Оригинальный] Pir@tya2010 Скачать
3 | 0


>> Регистрируемся здесь <<






Отзывы и комментарии о схеме читаем и пишем здесь: ---> Отзывы и комментарии о схеме

Новые благодарочки в телеграм довольных пользователей:
скриншот   скриншот   скриншот   скриншот   скриншот
    Дорогой пользователь! Огромная просьба, поблагодарите релизера, оцените раздачу и оставьте свои комментарий, если Вы скачали Плюс один через торрент бесплатно! Внесите свою лепту в развитие PiratBit!
    Комментировать посты могут только пользователи прошедшие не сложную регистрацию
    Показать сообщения:    

    Плюс один через торрент
    Скачать бесплатно Плюс один
    Плюс один скачать торрент
    Плюс один смотреть онлайн
    Cкачать фильм Плюс один бесплатно
    Плюс один скачать торрент в хорошем качестве
    Плюс один смотреть онлайн бесплатно в хорошем качестве


    Вы не можете начинать темы
    Вы не можете отвечать на сообщения
    Вы не можете редактировать свои сообщения
    Вы не можете удалять свои сообщения
    Вы не можете голосовать в опросах
    Вы не можете прикреплять файлы к сообщениям
    Вы можете скачивать файлы