новый адрес
Ссылка на приватное зеркало всего за 1$. Внимание количество ограничено!!!

iTunes

1+1

iTunes

мы

iTunes

1

iTunes

Чернобыль

iTunes

Ральф против интернета

Лицензия

ПШазам

Лицензия

Оно 2

Лицензия

30
pack

Вам бонус

ВАЖНО

!!Акция!!

Alien_RageХит недели

RePack

Resident Evil 21

ИГРА 18+

pack

RePack

jed

!!Акция!!

Alien_Rage

RePack

fifa19

RePack

Assassins Creed: Odyssey

RePack

NEED FOR SPEED™ PAYBACK

3 сезон

9 сезон

Бесстыжие 9 сезон

Все сериалы

все сериалы на PB.wtf

RePack

FAR CRY 5
Ребята, катастрофически не хватает 1900р. для оплаты серверов за Октябрь (всвязи с блокировками трафик упал в 3 раза), 1-2р., выручайте.
  

Человек, который сомневается (Леонид Агранович, Владимир Семаков) [1963, СССР, драма, криминал, SATRip от AVP Studio] pb.wtf

Человек, который сомневается через торрент pb.wtf

Раздают: 7 [ 0 KB/s ]
Размер: 1.09 GB | Добавлен: 2 мес. 11 д. назад | Торрент скачан:4 раза
Скачать  

11-09-2019 11:34 Человек, который сомневается Скачать торрент  

Человек, который сомневается
Страна: СССР
Производство: Мосфильм

Жанр: драма, криминал
Год выпуска: 1963
Продолжительность: 01:18:14

Перевод: Не требуется
Cубтитры: нет
Оригинальная аудиодорожка: русский

Режиссер: Леонид Агранович, Владимир Семаков

В ролях:
Георгий Куликов, Олег Даль, Геннадий Фролов, Иветта Киселёва, Дмитрий Масанов, Фёдор Корчагин, Юрий Волков, Борис Кордунов, Евгений Тетерин, Валентина Талызина, Георгий Склянский, Фёдор Чеханков, Лариса Виккел, Нина Меньшикова, Николай Прокопович, Геннадий Юхтин, Вера Алтайская, Валентина Ананьина, Павел Винник, Александр Пелевин, Николай Провоторов...
Об актёрах подробней

Описание:
Следователю Лекареву поручено выехать в далекий сибирский город и заново расследовать дело об убийстве десятиклассницы, так как виновность осужденного Бориса Дуленко вызывает сомнение.

Исходник: DVB
Качество видео: SATRip
Формат видео: AVI

Видео: 688x512 (4:3), 25,000 кадров/сек, XviD ~ 1792 kbps avg, 0.203 bit/pixel
Аудио: 48 kHz, Dolby Digital AC3 2.0, 192 kbps

Раздача от:
Общее
Полное имя : CHelovek,kotoryy.somnevaetsya.1963.SATRip_[New-team]_by_AVP_Studio.avi
Формат : AVI
Формат/Информация : Audio Video Interleave
Размер файла : 1,09 Гбайт
Продолжительность : 1 ч. 18 м.
Общий поток : 1993 Кбит/сек
Программа кодирования : VirtualDubMod 1.5.10.3 | www.virtualdub-fr.org || (build 2550/release)
Библиотека кодирования : VirtualDubMod build 2550/release

Видео
Идентификатор : 0
Формат : MPEG-4 Visual
Профиль формата : Advanced Simple@L5
Настройки формата : BVOP1 / Custom Matrix
Параметр BVOP формата : 1
Параметр QPel формата : Нет
Параметр GMC формата : Без точки перехода
Параметр матрицы формата : Выборочная
Идентификатор кодека : XVID
Идентификатор кодека/Подсказка : XviD
Продолжительность : 1 ч. 18 м.
Битрейт : 1792 Кбит/сек
Ширина : 688 пикселей
Высота : 512 пикселей
Соотношение сторон : 4:3
Частота кадров : 25,000 кадров/сек
Цветовое пространство : YUV
Субдискретизация насыщенности : 4:2:0
Битовая глубина : 8 бит
Тип развёртки : Прогрессивная
Метод сжатия : С потерями
Бит/(Пиксели*Кадры) : 0.203
Размер потока : 1003 Мбайт (90%)
Библиотека кодирования : XviD 73

Аудио
Идентификатор : 1
Формат : AC-3
Формат/Информация : Audio Coding 3
Коммерческое название : Dolby Digital
Идентификатор кодека : 2000
Продолжительность : 1 ч. 18 м.
Вид битрейта : Постоянный
Битрейт : 192 Кбит/сек
Каналы : 2 канала
ChannelLayout : L R
Частота : 48,0 КГц
Частота кадров : 31,250 кадров/сек (1536 SPF)
Битовая глубина : 16 бит
Метод сжатия : С потерями
Размер потока : 107 Мбайт (10%)
Выравнивание : Разделение по промежуткам
Продолжительность промежутка : 40 мс. (1,00 видеокадр)
Время предзагрузки промежутка : 500 мс
pb.wtf



Скачать Человек, который сомневается через торрент http://picplus.ru/img/1909/11/4d30d934.png Скачать фильм Человек, который сомневается через торрент бесплантно в хорошем качестве Описание:Следователю Лекареву поручено выехать в далекий сибирский город и заново расследовать дело об убийстве десятиклассницы, так как ... 5 10 1
Торрент: Зарегистрирован [2019-09-11 11:34] · скачан: 4 раз
Статус: √ проверено
Размер: 1.09 GB
Как cкачать? Как скачать Человек, который сомневается через торрент | qTorrent

% Раздел Тема Автор DL S | L
Кино СССР [ 1.09 GB ] Человек который сомневается [1963 СССР SATRip-AVC от AVP Studio] AVP Studio Скачать
11 | 0
    Дорогой пользователь! Огромная просьба, поблагодарите релизера, оцените раздачу и оставьте свои комментарий, если Вы скачали Человек, который сомневается через торрент бесплатно! Внесите свою лепту в развитие PiratBit!
    Комментировать посты могут только пользователи прошедшие не сложную регистрацию
    Показать сообщения:    

    Человек, который сомневается через торрент
    Скачать бесплатно Человек, который сомневается
    Человек, который сомневается скачать торрент
    Человек, который сомневается смотреть онлайн
    Cкачать фильм Человек, который сомневается бесплатно
    Человек, который сомневается скачать торрент в хорошем качестве
    Человек, который сомневается смотреть онлайн бесплатно в хорошем качестве


    Вы не можете начинать темы
    Вы не можете отвечать на сообщения
    Вы не можете редактировать свои сообщения
    Вы не можете удалять свои сообщения
    Вы не можете голосовать в опросах
    Вы не можете прикреплять файлы к сообщениям
    Вы можете скачивать файлы