MEGA SALE -50% FORZA HORIZON 4 ULTIMATE+ВСЕ DLC+ОНЛАЙН всего за 599р. 299 руб. (супер цена). Внимание количество ограничено!!!

iTunes

1+1

iTunes

мы

iTunes

1

iTunes

Чернобыль

iTunes

Ральф против интернета

Лицензия

ПШазам

Лицензия

Игра престолов

Лицензия

30
pack

ВАЖНО

!!Акция!!

Alien_RageХит недели

RePack

Resident Evil 21

ИГРА 18+

pack

RePack

Metro:Exodus

!!Акция!!

Alien_Rage

RePack

fifa19

RePack

Assassins Creed: Odyssey

RePack

NEED FOR SPEED™ PAYBACK

3 сезон

9 сезон

Бесстыжие 9 сезон

Все сериалы

все сериалы на PB.wtf

RePack

FAR CRY 5
Ребята, катастрофически не хватает 7730р. для оплаты серверов за АВГУСТ (всвязи с блокировками трафик упал в 3 раза), 1-2р., выручайте.
  

Ты у меня одна (Дмитрий Астрахан) [1993, Мелодрама, WEBRip 720p от KORSAR] pb.wtf

Ты у меня одна через торрент pb.wtf

Раздают: 3 [ 0 KB/s ]
Размер: 6.07 GB | Добавлен: 11 д. назад | Торрент скачан:9 раз
Скачать  

11-09-2019 12:57 Ты у меня одна Скачать торрент  

Ты у меня одна
Страна: Россия
Жанр: Мелодрама
Продолжительность: 01:35:27
Год выпуска: 1993
Перевод: не требуется
Субтитры: нет
Режиссёр: Дмитрий Астрахан
В ролях: Александр Збруев, Светлана Рябова, Марина Неелова, Александр Лыков, Ирина Мазуркевич, Виктор Гоголев, Андрей Федорцов, Анатолий Журавлев, Владимир Труханов, Сергей Лысов, Анна Банщикова, Ольга Васильева (Назарова), Артур Ваха, Марк Горонок, Денис Кириллов, Мария Лобачева, Иван Паршин, Александр Цыбульский


Описание: Любовь - настоящее безумие. Это было давно. Он даже не догадывался, что эта маленькая угловатая Аня влюблена в него по самые уши, так как сам был увлечен привлекательной одноклассницей, на которой в конце концов женится. Но пройдет много лет, и она вернется в Россию богатой американской бизнес-леди, чтобы если не добиться наконец своего, то хотя бы отомстить за растоптанную любовь.

Релиз от:

Качество: WEBRip 720p
Формат: MKV
Видео: MPEG-4 AVC, 1280х720, 25.000 fps, 8697 Кбит/сек
Аудио: AC3, 2 ch, 224 Кбит/с
  • x264 [info]: frame I:755 Avg QP:17.72 size:155391
  • x264 [info]: frame P:29007 Avg QP:19.41 size: 96183
  • x264 [info]: frame B:113340 Avg QP:21.22 size: 30386
  • x264 [info]: consecutive B-frames: 1.1% 1.9% 5.9% 11.6% 20.6% 55.5% 2.9% 1.2% 0.9% 1.1% 0.4%
Общее
Уникальный идентификатор : 175380383894838465934740134503908351054 (0x83F108865B4DA1BEB92C2B13FCEF9C4E)
Полное имя : D:\Ты у меня одна_1993-WEBRip 720p_KORSAR.mkv
Формат : Matroska
Версия формата : Version 2
Размер файла : 6,07 Гбайт
Продолжительность : 1 ч. 35 м.
Общий поток : 9102 Кбит/сек
Название фильма : Ты у меня одна_1993-WEB-DLRip 720p_KORSAR
Дата кодирования : UTC 2019-08-29 07:27:43
Программа кодирования : mkvmerge v5.8.0 ('No Sleep / Pillow') built on Sep 2 2012 15:37:04
Библиотека кодирования : libebml v1.2.3 + libmatroska v1.3.0

Видео
Идентификатор : 1
Формат : AVC
Формат/Информация : Advanced Video Codec
Профиль формата : High@L4.1
Настройки формата : CABAC / 9 Ref Frames
Параметр CABAC формата : Да
Параметр RefFrames формата : 9 кадров
Идентификатор кодека : V_MPEG4/ISO/AVC
Продолжительность : 1 ч. 35 м.
Битрейт : 8697 Кбит/сек
Ширина : 1280 пикселей
Высота : 720 пикселей
Соотношение сторон : 16:9
Режим частоты кадров : Постоянный
Частота кадров : 25,000 кадров/сек
Цветовое пространство : YUV
Субдискретизация насыщенности : 4:2:0
Битовая глубина : 8 бит
Тип развёртки : Прогрессивная
Бит/(Пиксели*Кадры) : 0.377
Размер потока : 5,80 Гбайт (96%)
Библиотека кодирования : x264 core 152 r2851kMod ba24899
Настройки программы : cabac=1 / ref=9 / deblock=1:-2:-2 / analyse=0x3:0x113 / me=umh / subme=10 / psy=1 / fade_compensate=0.00 / psy_rd=1.05:0.10 / mixed_ref=1 / me_range=48 / chroma_me=1 / trellis=2 / 8x8dct=1 / cqm=0 / deadzone=21,11 / fast_pskip=1 / chroma_qp_offset=-3 / threads=18 / lookahead_threads=4 / sliced_threads=0 / nr=0 / decimate=1 / interlaced=0 / bluray_compat=0 / constrained_intra=0 / bframes=10 / b_pyramid=2 / b_adapt=2 / b_bias=0 / direct=1 / weightb=1 / open_gop=0 / weightp=2 / keyint=250 / keyint_min=25 / scenecut=40 / intra_refresh=0 / rc=crf / mbtree=0 / crf=18.8000 / qcomp=0.63 / qpmin=0 / qpmax=30 / qpstep=4 / ip_ratio=1.40 / pb_ratio=1.30 / aq=1:1.00
Язык : English
Default : Да
Forced : Нет
Цветовой диапазон : Limited
Основные цвета : BT.709
Характеристики трансфера : BT.709
Коэффициенты матрицы : BT.709

Аудио
Идентификатор : 2
Формат : E-AC-3
Формат/Информация : Enhanced AC-3
Коммерческое название : Dolby Digital Plus
Идентификатор кодека : A_EAC3
Продолжительность : 1 ч. 35 м.
Вид битрейта : Постоянный
Битрейт : 224 Кбит/сек
Каналы : 2 канала
ChannelLayout : L R
Частота : 48,0 КГц
Частота кадров : 31,250 кадров/сек (1536 SPF)
Метод сжатия : С потерями
Размер потока : 153 Мбайт (2%)
Язык : Russian
ServiceKind/String : Complete Main
Default : Да
Forced : Нет
pb.wtf



Скачать Ты у меня одна через торрент http://s007.radikal.ru/i301/1112/e0/09a8befdd75c.jpg Скачать фильм Ты у меня одна через торрент бесплантно в хорошем качестве Описание: Любовь - настоящее безумие. Это было давно. Он даже не догадывался, что эта маленькая угловатая Аня влюблена в него по самые уши, ... 10 10 4
Info! Золотая раздача, скачанное не засчитывается.
Торрент: Зарегистрирован [2019-09-11 12:57] · скачан: 9 раз
Статус: √ проверено
Размер: 6.07 GB
Как cкачать? Как скачать Ты у меня одна через торрент | qTorrent

% Раздел Тема Автор DL S | L
Наши фильмы, до 2010 [ 1.91 GB ] Ты у меня одна [1993 DVDRip-AVC от KORSAR] Parallelo Скачать
1 | 0
Кино СССР [ 695 MB ] Ты у меня одна [1993 Мелодрамма DVDRip] manhunt5530 Скачать
1 | 0


Последний раз редактировалось: filbi1976 (2019-09-11 19:39), всего редактировалось 1 раз


>> Регистрируемся здесь <<






Отзывы и комментарии о схеме читаем и пишем здесь: ---> Отзывы и комментарии о схеме

Новые благодарочки в телеграм довольных пользователей:
скриншот   скриншот   скриншот   скриншот   скриншот

11-09-2019 13:11 Ты у меня одна Скачать торрент  

Топик был перенесен из форума Кино СССР в форум Наши фильмы (HD, WEB-DL 720p, 1080p)


bober100pb.wtf



11-09-2019 15:13 Ты у меня одна Скачать торрент  

Ссылка на кинопоиск невернаяpb.wtf



    Дорогой пользователь! Огромная просьба, поблагодарите релизера, оцените раздачу и оставьте свои комментарий, если Вы скачали Ты у меня одна через торрент бесплатно! Внесите свою лепту в развитие PiratBit!
    Комментировать посты могут только пользователи прошедшие не сложную регистрацию
    Показать сообщения:    

    Ты у меня одна через торрент
    Скачать бесплатно Ты у меня одна
    Ты у меня одна скачать торрент
    Ты у меня одна смотреть онлайн
    Cкачать фильм Ты у меня одна бесплатно
    Ты у меня одна скачать торрент в хорошем качестве
    Ты у меня одна смотреть онлайн бесплатно в хорошем качестве


    Вы не можете начинать темы
    Вы не можете отвечать на сообщения
    Вы не можете редактировать свои сообщения
    Вы не можете удалять свои сообщения
    Вы не можете голосовать в опросах
    Вы не можете прикреплять файлы к сообщениям
    Вы можете скачивать файлы