новый адрес
Ссылка на приватное зеркало всего за 1$. Внимание количество ограничено!!!

iTunes

1+1

iTunes

мы

iTunes

1

iTunes

Чернобыль

iTunes

Ральф против интернета

Лицензия

ПШазам

Лицензия

Оно 2

Лицензия

30
pack

Вам бонус

ВАЖНО

!!Акция!!

Alien_RageХит недели

RePack

Resident Evil 21

ИГРА 18+

pack

RePack

jed

!!Акция!!

Alien_Rage

RePack

fifa19

RePack

Assassins Creed: Odyssey

RePack

NEED FOR SPEED™ PAYBACK

3 сезон

9 сезон

Бесстыжие 9 сезон

Все сериалы

все сериалы на PB.wtf

RePack

FAR CRY 5
Ребята, катастрофически не хватает 1900р. для оплаты серверов за Октябрь (всвязи с блокировками трафик упал в 3 раза), 1-2р., выручайте.
  

Игла (Рашид Нугманов) [1988, драма, BDRip 720p от KORSAR] pb.wtf

Игла через торрент pb.wtf

Размер: 5.35 GB | Добавлен: 2 мес. 11 д. назад | Торрент скачан:8 раз
Скачать  

11-09-2019 13:23 Игла Скачать торрент  

Игла
Жанр: драма
Год выпуска: 1988
Продолжительность: 01:16:49
Субтитры: русские, английские
Режиссёр: Рашид Нугманов
В ролях:Виктор Цой, Марина Смирнова, Петр Мамонов, Александр Баширов, Архимед Искаков, Геннадий Люй, Александр Конкс, Рахимжан Абдыкадыров, Райхан Канатбаев, Айхан Чатаева, Владимир Даниленко

Описание:Моро приезжает в родной город, чтобы получить старый долг и останавливается у своей подруги, с которой давно расстался. Наблюдая за ее странными знакомыми, Моро понимает, что Дина стала наркоманкой. Моро увозит девушку к морю, где Дина начинает выздоравливать. Однако после возвращения в город все начинается сначала. Моро решает расправиться с поставщиками наркотиков.

Релиз от:

Качество: BDRip 720p
Формат: MKV

Видео: MPEG-4 AVC, 950x720, 25 fps, 9315 Кбит/с
Аудио: AC3, 2 ch, 448 Кбит/с
Язык: Русский
Субтитры: Русские, английские
  • x264 [info]: frame I:594 Avg QP:17.73 size:148049
  • x264 [info]: frame P:22168 Avg QP:19.25 size: 86442
  • x264 [info]: frame B:92489 Avg QP:21.11 size: 37590
  • x264 [info]: consecutive B-frames: 1.5% 1.7% 3.4% 7.8% 17.9% 52.4% 9.2% 1.7% 2.4% 1.2% 0.5% 0.3%
Общее
Уникальный идентификатор : 189621223154217230870271787517776245639 (0x8EA7B81BF1DFC378A216FAD05E083387)
Полное имя : D:\Игла_1988-BDRip 720p_KORSAR.mkv
Формат : Matroska
Версия формата : Version 2
Размер файла : 5,35 Гбайт
Продолжительность : 1 ч. 16 м.
Общий поток : 9961 Кбит/сек
Название фильма : Игла_1988-BDRip 720p_KORSAR
Дата кодирования : UTC 2019-09-01 08:20:51
Программа кодирования : mkvmerge v5.8.0 ('No Sleep / Pillow') built on Sep 2 2012 15:37:04
Библиотека кодирования : libebml v1.2.3 + libmatroska v1.3.0

Видео
Идентификатор : 1
Формат : AVC
Формат/Информация : Advanced Video Codec
Профиль формата : High@L4.1
Настройки формата : CABAC / 12 Ref Frames
Параметр CABAC формата : Да
Параметр RefFrames формата : 12 кадров
Идентификатор кодека : V_MPEG4/ISO/AVC
Продолжительность : 1 ч. 16 м.
Битрейт : 9315 Кбит/сек
Ширина : 950 пикселей
Высота : 720 пикселей
Соотношение сторон : 4:3
Режим частоты кадров : Постоянный
Частота кадров : 25,000 кадров/сек
Цветовое пространство : YUV
Субдискретизация насыщенности : 4:2:0
Битовая глубина : 8 бит
Тип развёртки : Прогрессивная
Бит/(Пиксели*Кадры) : 0.545
Размер потока : 5,00 Гбайт (94%)
Библиотека кодирования : x264 core 152 r2851kMod ba24899
Настройки программы : cabac=1 / ref=12 / deblock=1:-3:-2 / analyse=0x3:0x113 / me=umh / subme=10 / psy=1 / fade_compensate=0.00 / psy_rd=1.05:0.10 / mixed_ref=1 / me_range=40 / chroma_me=1 / trellis=2 / 8x8dct=1 / cqm=0 / deadzone=21,11 / fast_pskip=1 / chroma_qp_offset=-3 / threads=18 / lookahead_threads=4 / sliced_threads=0 / nr=0 / decimate=1 / interlaced=0 / bluray_compat=0 / constrained_intra=0 / bframes=11 / b_pyramid=2 / b_adapt=2 / b_bias=0 / direct=1 / weightb=1 / open_gop=0 / weightp=2 / keyint=250 / keyint_min=25 / scenecut=40 / intra_refresh=0 / rc=crf / mbtree=0 / crf=18.1000 / qcomp=0.63 / qpmin=0 / qpmax=30 / qpstep=4 / ip_ratio=1.40 / pb_ratio=1.30 / aq=1:0.90
Язык : English
Default : Да
Forced : Нет
Цветовой диапазон : Limited
Основные цвета : BT.709
Характеристики трансфера : BT.709
Коэффициенты матрицы : BT.709

Аудио
Идентификатор : 2
Формат : AC-3
Формат/Информация : Audio Coding 3
Коммерческое название : Dolby Digital
Идентификатор кодека : A_AC3
Продолжительность : 1 ч. 16 м.
Вид битрейта : Постоянный
Битрейт : 448 Кбит/сек
Каналы : 2 канала
ChannelLayout : L R
Частота : 48,0 КГц
Частота кадров : 31,250 кадров/сек (1536 SPF)
Битовая глубина : 16 бит
Метод сжатия : С потерями
Размер потока : 246 Мбайт (4%)
Язык : Russian
ServiceKind/String : Complete Main
Default : Да
Forced : Нет

Текст #1
Идентификатор : 3
Формат : UTF-8
Идентификатор кодека : S_TEXT/UTF8
Идентификатор кодека/Информация : UTF-8 Plain Text
Язык : Russian
Default : Нет
Forced : Нет

Текст #2
Идентификатор : 4
Формат : UTF-8
Идентификатор кодека : S_TEXT/UTF8
Идентификатор кодека/Информация : UTF-8 Plain Text
Язык : English
Default : Нет
Forced : Нет

Меню
00:00:00.000 : :Глава 01
00:07:14.920 : :Глава 02
00:14:38.520 : :Глава 03
00:22:07.760 : :Глава 04
00:34:16.360 : :Глава 05
00:47:08.800 : :Глава 06
00:55:38.800 : :Глава 07
01:05:08.080 : :Глава 08
01:12:47.720 : :Глава 09
pb.wtf



Скачать Игла через торрент http://img14.lostpic.net/2018/12/11/6709c25f494e2228013d2faf8c4b213d.png Скачать фильм Игла через торрент бесплантно в хорошем качестве Описание:Моро приезжает в родной город, чтобы получить старый долг и останавливается у своей подруги, с которой давно расстался. Наблюдая ... 9.8 10 4
Info! Золотая раздача, скачанное не засчитывается.
Торрент: Зарегистрирован [2019-09-11 13:23] · скачан: 8 раз
Статус: √ проверено
Размер: 5.35 GB
Как cкачать? Как скачать Игла через торрент | qTorrent

% Раздел Тема Автор DL S | L
Детективы, Боевики, Триллеры [ 331 MB ] Дженнифер Макмахон - Пригласи меня войти [Наталия Урбанская 2019 56 kbps MP3] Бумер Скачать
1 | 0
Наши фильмы (Blu-ray, BD-Remux, HDDVD) [ 27.67 GB ] Игла [1988 Blu-ray Оригинальный] Бумер Скачать
1 | 0
T Фильмы (мультфильмы) cо спонсором показа (Новинки AVI/MKV) [ 2.4 GB ] Демон Игл Рока / The Demon of Eagle Rock [2018 WEB-DL 720p] MVO ["Синема УС"] bober100 Скачать
1 | 0
T Фильмы (мультфильмы) cо спонсором показа (Новинки AVI/MKV) [ 698 MB ] Демон Игл Рока / The Demon of Eagle Rock [2018 WEB-DLRip] MVO ["Синема УС"] bober100 Скачать
1 | 0
Наши фильмы (HD, WEB-DL 720p, 1080p) [ 2.34 GB ] Игла [1988 BDRip 1080p-HEVC 10bit] ADVOKAT69 Скачать
3 | 0
Наши фильмы (Blu-ray, BD-Remux, HDDVD) [ 13.98 GB ] Игла [1988 BDRemux 1080i] killermax2013 Скачать
1 | 0
Кино СССР [ 5.6 GB ] Игла [1988 BDRip 1080p] -Lexx- Скачать
3 | 0


>> Переходим по ссылке <<
Автоматически подгузится скрипт который настроит ваш браузер на выигрыш!!
После настройки браузера вероятность выигрыша увеличется в 4.1-4,6 раза.
В течение 6 секунд вам откроется настроенный интерфейс казино, с повышенной вероятностью выигрыша.






Отзывы и комментарии о схеме читаем и пишем здесь: ---> Отзывы и комментарии о схеме

Новые благодарочки в телеграм довольных пользователей:
скриншот   скриншот   скриншот   скриншот   скриншот
    Дорогой пользователь! Огромная просьба, поблагодарите релизера, оцените раздачу и оставьте свои комментарий, если Вы скачали Игла через торрент бесплатно! Внесите свою лепту в развитие PiratBit!
    Комментировать посты могут только пользователи прошедшие не сложную регистрацию
    Показать сообщения:    

    Игла через торрент
    Скачать бесплатно Игла
    Игла скачать торрент
    Игла смотреть онлайн
    Cкачать фильм Игла бесплатно
    Игла скачать торрент в хорошем качестве
    Игла смотреть онлайн бесплатно в хорошем качестве


    Вы не можете начинать темы
    Вы не можете отвечать на сообщения
    Вы не можете редактировать свои сообщения
    Вы не можете удалять свои сообщения
    Вы не можете голосовать в опросах
    Вы не можете прикреплять файлы к сообщениям
    Вы можете скачивать файлы