MEGA SALE -50% FORZA HORIZON 4 ULTIMATE+ВСЕ DLC+ОНЛАЙН всего за 599р. 299 руб. (супер цена). Внимание количество ограничено!!!

iTunes

1+1

iTunes

мы

iTunes

1

iTunes

Чернобыль

iTunes

Ральф против интернета

Лицензия

ПШазам

Лицензия

Игра престолов

Лицензия

30
pack

ВАЖНО

!!Акция!!

Alien_RageХит недели

RePack

Resident Evil 21

ИГРА 18+

pack

RePack

Metro:Exodus

!!Акция!!

Alien_Rage

RePack

fifa19

RePack

Assassins Creed: Odyssey

RePack

NEED FOR SPEED™ PAYBACK

3 сезон

9 сезон

Бесстыжие 9 сезон

Все сериалы

все сериалы на PB.wtf

RePack

FAR CRY 5
Ребята, катастрофически не хватает 7730р. для оплаты серверов за АВГУСТ (всвязи с блокировками трафик упал в 3 раза), 1-2р., выручайте.
  

На расстоянии удара / Striking Distance (Рауди Херрингтон / Rowdy Herrington) [1993, Боевик, триллер, криминал, BDRip 720p от KORSAR] Dub + MVO + DVO + 2x AVO pb.wtf

На расстоянии удара через торрент pb.wtf

Раздают: 6 [ 0 KB/s ]
Размер: 6.69 GB | Добавлен: 5 д. назад | Торрент скачан:24 раза
Скачать  

11-09-2019 13:38 На расстоянии удара Скачать торрент  

На расстоянии удара / Striking Distance

Год выпуска: 1993
Страна: США
Жанр: Триллер, детектив
Продолжительность: 1:41:44
Перевод: Дублированный, профессиональный многоголосый (закадровый), профессиональный двухголосый (закадровый), авторский одноголосый (закадровый)

Режиссер: Рауди Херрингтон / Rowdy HerringtonВ ролях: Брюс Уиллис /Bruce Willis/, Сара Джессика Паркер /Sarah Jessica Parker/, Деннис Фарина /Dennis Farina/, Том Сайзмор /Tom Sizemore/, Брайон Джеймс /Brion James/, Роберт Пасторелли /Robert Pastorelli/

Описание: Полицейский Том Харди (Брюс Уиллис), переведенный в отряд речной полиции, начинает вести неофициальное расследование по делу серийного убийцы, терроризирующего город. Его версия о преступнике отличается от той, которой придерживаются власти и коллеги. Онуверен, что маньяк - работник полиции, и только его напарница (Сара Джессика Паркер) поддерживает эту идею. Продолжая поиск убийцы, они не догадываются о том, что тот, кого они разыскивают с таким упорством, сам ищет встречи с ними.
Релиз от:

Качество: BDRip 720p
Формат: MKV

Видео: MPEG-4 AVC, 1280x694, 23.976 кадр/с, 7367 Кбит/с
Звук:
№1: Русский (АС3, 2 ch, 192 Кбит/с) Дублированный
№2: Русский (АС3, 2 ch, 192 Кбит/с) Профессиональный многоголосый [R5]
№3: Русский (АС3, 2 ch, 192 Кбит/с) Профессиональный двухголосый [Селена Интернешнл]
№4: Русский (АС3, 6 ch, 640 Кбит/с) Авторский одноголосый [Андрей Гаврилов]
№5: Русский (АС3, 2 ch, 192 Кбит/с) Авторский одноголосый [Юрий Живов]
№6: Английский (АС3, 6 ch, 448 Кбит/с)
Субтитры: Русские, английские

  • x264 [info]: frame I:1235 Avg QP:16.85 size:157959
  • x264 [info]: frame P:30878 Avg QP:18.35 size: 78972
  • x264 [info]: frame B:114239 Avg QP:20.54 size: 27404
  • x264 [info]: consecutive B-frames: 1.8% 2.3% 6.4% 18.0% 21.7% 40.2% 6.8% 1.5% 0.9% 0.3%
Общее
Уникальный идентификатор : 209989267206158728643150850071230963513 (0x9DFA7636A39FC894B6205DF4833C5F39)
Полное имя : D:\На расстоянии удара_1993-BDRip 720p_KORSAR.mkv
Формат : Matroska
Версия формата : Version 2
Размер файла : 6,69 Гбайт
Продолжительность : 1 ч. 41 м.
Общий поток : 9410 Кбит/сек
Название фильма : На расстоянии удара_1993-BDRip 720p_KORSAR
Дата кодирования : UTC 2019-09-04 07:50:12
Программа кодирования : mkvmerge v5.8.0 ('No Sleep / Pillow') built on Sep 2 2012 15:37:04
Библиотека кодирования : libebml v1.2.3 + libmatroska v1.3.0

Видео
Идентификатор : 1
Формат : AVC
Формат/Информация : Advanced Video Codec
Профиль формата : High@L4.1
Настройки формата : CABAC / 9 Ref Frames
Параметр CABAC формата : Да
Параметр RefFrames формата : 9 кадров
Идентификатор кодека : V_MPEG4/ISO/AVC
Продолжительность : 1 ч. 41 м.
Битрейт : 7367 Кбит/сек
Ширина : 1280 пикселей
Высота : 694 пикселя
Соотношение сторон : 1,85:1
Режим частоты кадров : Постоянный
Частота кадров : 23,976 (24000/1001) кадра/сек
Цветовое пространство : YUV
Субдискретизация насыщенности : 4:2:0
Битовая глубина : 8 бит
Тип развёртки : Прогрессивная
Бит/(Пиксели*Кадры) : 0.346
Размер потока : 5,24 Гбайт (78%)
Библиотека кодирования : x264 core 152 r2851kMod ba24899
Настройки программы : cabac=1 / ref=9 / deblock=1:-3:-2 / analyse=0x3:0x113 / me=umh / subme=10 / psy=1 / fade_compensate=0.00 / psy_rd=1.05:0.10 / mixed_ref=1 / me_range=40 / chroma_me=1 / trellis=2 / 8x8dct=1 / cqm=0 / deadzone=21,11 / fast_pskip=1 / chroma_qp_offset=-3 / threads=18 / lookahead_threads=3 / sliced_threads=0 / nr=0 / decimate=1 / interlaced=0 / bluray_compat=0 / constrained_intra=0 / bframes=9 / b_pyramid=2 / b_adapt=2 / b_bias=0 / direct=1 / weightb=1 / open_gop=0 / weightp=2 / keyint=240 / keyint_min=23 / scenecut=40 / intra_refresh=0 / rc=crf / mbtree=0 / crf=18.0000 / qcomp=0.63 / qpmin=0 / qpmax=30 / qpstep=4 / ip_ratio=1.40 / pb_ratio=1.30 / aq=1:0.90
Язык : English
Default : Да
Forced : Нет
Цветовой диапазон : Limited
Основные цвета : BT.709
Характеристики трансфера : BT.709
Коэффициенты матрицы : BT.709

Аудио #1
Идентификатор : 2
Формат : AC-3
Формат/Информация : Audio Coding 3
Коммерческое название : Dolby Digital
Идентификатор кодека : A_AC3
Продолжительность : 1 ч. 41 м.
Вид битрейта : Постоянный
Битрейт : 192 Кбит/сек
Каналы : 2 канала
ChannelLayout : L R
Частота : 48,0 КГц
Частота кадров : 31,250 кадров/сек (1536 SPF)
Битовая глубина : 16 бит
Метод сжатия : С потерями
Размер потока : 140 Мбайт (2%)
Заголовок : Дублированный
Язык : Russian
ServiceKind/String : Complete Main
Default : Да
Forced : Да

Аудио #2
Идентификатор : 3
Формат : AC-3
Формат/Информация : Audio Coding 3
Коммерческое название : Dolby Digital
Идентификатор кодека : A_AC3
Продолжительность : 1 ч. 41 м.
Вид битрейта : Постоянный
Битрейт : 192 Кбит/сек
Каналы : 2 канала
ChannelLayout : L R
Частота : 48,0 КГц
Частота кадров : 31,250 кадров/сек (1536 SPF)
Битовая глубина : 16 бит
Метод сжатия : С потерями
Размер потока : 140 Мбайт (2%)
Заголовок : Многоголосый [R5]
Язык : Russian
ServiceKind/String : Complete Main
Default : Нет
Forced : Нет

Аудио #3
Идентификатор : 4
Формат : AC-3
Формат/Информация : Audio Coding 3
Коммерческое название : Dolby Digital
Идентификатор кодека : A_AC3
Продолжительность : 1 ч. 41 м.
Вид битрейта : Постоянный
Битрейт : 192 Кбит/сек
Каналы : 2 канала
ChannelLayout : L R
Частота : 48,0 КГц
Частота кадров : 31,250 кадров/сек (1536 SPF)
Битовая глубина : 16 бит
Метод сжатия : С потерями
Размер потока : 140 Мбайт (2%)
Заголовок : Двухголосый [Селена Интернешнл]
Язык : Russian
ServiceKind/String : Complete Main
Default : Нет
Forced : Нет

Аудио #4
Идентификатор : 5
Формат : AC-3
Формат/Информация : Audio Coding 3
Коммерческое название : Dolby Digital
Идентификатор кодека : A_AC3
Продолжительность : 1 ч. 41 м.
Вид битрейта : Постоянный
Битрейт : 640 Кбит/сек
Каналы : 6 каналов
ChannelLayout : L R C LFE Ls Rs
Частота : 48,0 КГц
Частота кадров : 31,250 кадров/сек (1536 SPF)
Битовая глубина : 16 бит
Метод сжатия : С потерями
Размер потока : 466 Мбайт (7%)
Заголовок : Авторский [Андрей Гаврилов]
Язык : Russian
ServiceKind/String : Complete Main
Default : Нет
Forced : Нет

Аудио #5
Идентификатор : 6
Формат : AC-3
Формат/Информация : Audio Coding 3
Коммерческое название : Dolby Digital
Идентификатор кодека : A_AC3
Продолжительность : 1 ч. 41 м.
Вид битрейта : Постоянный
Битрейт : 192 Кбит/сек
Каналы : 2 канала
ChannelLayout : L R
Частота : 48,0 КГц
Частота кадров : 31,250 кадров/сек (1536 SPF)
Битовая глубина : 16 бит
Метод сжатия : С потерями
Размер потока : 140 Мбайт (2%)
Заголовок : Авторский [Юрий Живов]
Язык : Russian
ServiceKind/String : Complete Main
Default : Нет
Forced : Нет

Аудио #6
Идентификатор : 7
Формат : AC-3
Формат/Информация : Audio Coding 3
Коммерческое название : Dolby Digital
Идентификатор кодека : A_AC3
Продолжительность : 1 ч. 41 м.
Вид битрейта : Постоянный
Битрейт : 448 Кбит/сек
Каналы : 6 каналов
ChannelLayout : L R C LFE Ls Rs
Частота : 48,0 КГц
Частота кадров : 31,250 кадров/сек (1536 SPF)
Битовая глубина : 16 бит
Метод сжатия : С потерями
Размер потока : 326 Мбайт (5%)
Заголовок : English
Язык : English
ServiceKind/String : Complete Main
Default : Нет
Forced : Нет

Текст #1
Идентификатор : 8
Формат : UTF-8
Идентификатор кодека : S_TEXT/UTF8
Идентификатор кодека/Информация : UTF-8 Plain Text
Язык : Russian
Default : Нет
Forced : Нет

Текст #2
Идентификатор : 9
Формат : UTF-8
Идентификатор кодека : S_TEXT/UTF8
Идентификатор кодека/Информация : UTF-8 Plain Text
Язык : English
Default : Нет
Forced : Нет

Меню
00:00:00.000 : :01 Start
00:05:59.943 : :02 Pittsburgh, 1991
00:12:58.528 : :03 in Pursuit
00:18:49.045 : :04 Courthouse Crutches
00:25:05.838 : :05 Jimmy on the Bridge
00:31:06.782 : :06 Two Years Later
00:37:49.058 : :07 River Rescue Station
00:43:44.413 : :08 Tom Hardy
00:46:15.439 : :09 Wrong House
00:53:48.725 : :10 New Partner
01:00:23.119 : :11 a By-the-Book Bust
01:08:09.335 : :12 Hardy Barges In
01:12:46.946 : :13 Little Red Riding Hood
01:20:55.392 : :14 Diner Break
01:31:17.639 : :15 Backing Up a Partner
01:33:52.085 : :16 Another Corpse
pb.wtf



Скачать На расстоянии удара через торрент http://i30.fastpic.ru/big/2012/0128/e3/39b194f9fd28ec4baacdca12e13762e3.jpg Скачать фильм На расстоянии удара через торрент бесплантно в хорошем качестве Описание: Полицейский Том Харди (Брюс Уиллис), переведенный в отряд речной полиции, начинает вести неофициальное расследование по делу ... 10 10 3
Info! Золотая раздача, скачанное не засчитывается.
Торрент: Зарегистрирован [2019-09-11 13:38] · скачан: 24 раз
Статус: √ проверено
Размер: 6.69 GB
Как cкачать? Как скачать На расстоянии удара через торрент | qTorrent


>> Регистрируемся здесь <<






Отзывы и комментарии о схеме читаем и пишем здесь: ---> Отзывы и комментарии о схеме

Новые благодарочки в телеграм довольных пользователей:
скриншот   скриншот   скриншот   скриншот   скриншот
    Дорогой пользователь! Огромная просьба, поблагодарите релизера, оцените раздачу и оставьте свои комментарий, если Вы скачали На расстоянии удара через торрент бесплатно! Внесите свою лепту в развитие PiratBit!
    Комментировать посты могут только пользователи прошедшие не сложную регистрацию
    Показать сообщения:    

    На расстоянии удара через торрент
    Скачать бесплатно На расстоянии удара
    На расстоянии удара скачать торрент
    На расстоянии удара смотреть онлайн
    Cкачать фильм На расстоянии удара бесплатно
    На расстоянии удара скачать торрент в хорошем качестве
    На расстоянии удара смотреть онлайн бесплатно в хорошем качестве


    Вы не можете начинать темы
    Вы не можете отвечать на сообщения
    Вы не можете редактировать свои сообщения
    Вы не можете удалять свои сообщения
    Вы не можете голосовать в опросах
    Вы не можете прикреплять файлы к сообщениям
    Вы можете скачивать файлы