Ссылка на приватное зеркало всего за 1$. Внимание количество ограничено!!!

iTunes

1+1

iTunes

мы

WEB-DL

1

iTunes

Чернобыль

iTunes

Ральф против интернета

Лицензия

ПШазам

Лицензия

Оно 2

Лицензия

30
pack

Вам бонус

ВАЖНО

!!Акция!!

Alien_RageХит недели

RePack

Resident Evil 21

ИГРА 18+

pack

RePack

jed

!!Акция!!

Alien_Rage

RePack

fifa19

RePack

Assassins Creed: Odyssey

RePack

NEED FOR SPEED™ PAYBACK

3 сезон

9 сезон

Бесстыжие 9 сезон

Все сериалы

все сериалы на PB.wtf

RePack

FAR CRY 5
Ребята, катастрофически не хватает 1900р. для оплаты серверов за Октябрь (всвязи с блокировками трафик упал в 3 раза), 1-2р., выручайте.
  

Синонимы / Synonymes (Надав Лапид) [2019, драма, WEB-DLRip-AVC] MVO [iTunes] - ExKinoRay pb.wtf

Синонимы через торрент pb.wtf

Раздают: 7 [ 0 KB/s ] Качают: 1 [ 0 KB/s ]
Размер: 2.02 GB | Добавлен: 3 мес. 2 д. назад | Торрент скачан:121 раз
Скачать  

12-09-2019 02:12 Синонимы Скачать торрент  

Название: Синонимы
Оригинальное название: Synonymes
Год выпуска: 2019
Жанр: Драма
Режиссер: Надав Лапид
В ролях: Том Мерсье, Кантен Дольмер, Луиз Шевильот, Урия Хаик, Оливье Лусто, Йехуда Альмагор, Гайя Фон Шварце, Гал Амитай, Идан Ашкенази, Долев Охана

О фильме: Израильтянин Йоав прилетает в зимний Париж в надежде, что Франция станет его новым домом, а французский язык - новым средством общения с миром. За один день герой успевает вселиться в чужую брошенную квартиру, потерять все свои вещи, чуть не умереть от переохлаждения и завести новых друзей. Богемные спасители дарят ему пачку евро, айфон, великолепное горчичное пальто Kenzo и обманчивую уверенность в том, что со временем он сможет стать настоящим французом.

rating

Страна: Франция, Израиль, Германия
Студия: Arte France, arte France Cinéma
Продолжительность: 02:03:38
Перевод: Профессиональный (многоголосый, закадровый) | iTunes

Формат: MKV
Качество: WEB-DLRip-AVC
Видео: MPEG-4 AVC, 1024x424 (2.40:1), 23.976 fps, 1950 Kbps, 0.187 bit/pixel
Аудио: 48 kHz, AC3, 5.1, 384 Kbps | iTunes | RUS |
General
Unique ID : 226964760766378533021213400474173540837 (0xAABFD2AA1A5C60BD9085CAA2EA5789E5)
Complete name : D:\Synonymes.2019.iTunes.WEB-DL.AVC.ExKinoRay.mkv
Format : Matroska
Format version : Version 2
File size : 2.02 GiB
Duration : 2 h 3 min
Overall bit rate : 2 333 kb/s
Movie name : Synonymes 2019 from ExKinoRay
Encoded date : UTC 2019-08-11 15:47:58
Writing application : mkvmerge v5.6.0 ('Kenya Kane') built on May 27 2012 16:44:04
Writing library : libebml v1.2.3 + libmatroska v1.3.0

Video
ID : 1
Format : AVC
Format/Info : Advanced Video Codec
Format profile : High@L4.1
Format settings, CABAC : Yes
Format settings, ReFrames : 11 frames
Codec ID : V_MPEG4/ISO/AVC
Duration : 2 h 3 min
Bit rate : 1 950 kb/s
Width : 1 024 pixels
Height : 424 pixels
Display aspect ratio : 2.40:1
Frame rate mode : Constant
Frame rate : 23.976 (23976/1000) FPS
Color space : YUV
Chroma subsampling : 4:2:0
Bit depth : 8 bits
Scan type : Progressive
Bits/(Pixel*Frame) : 0.187
Stream size : 1.64 GiB (82%)
Title : Enigma
Writing library : x264 core 152 r2851 ba24899
Encoding settings : cabac=1 / ref=11 / deblock=1:-2:-2 / analyse=0x3:0x113 / me=umh / subme=10 / psy=1 / psy_rd=1.05:0.10 / mixed_ref=1 / me_range=32 / chroma_me=1 / trellis=2 / 8x8dct=1 / cqm=0 / deadzone=21,11 / fast_pskip=0 / chroma_qp_offset=-3 / threads=12 / lookahead_threads=2 / sliced_threads=0 / nr=0 / decimate=0 / interlaced=0 / bluray_compat=0 / constrained_intra=0 / bframes=9 / b_pyramid=2 / b_adapt=2 / b_bias=0 / direct=3 / weightb=1 / open_gop=0 / weightp=2 / keyint=240 / keyint_min=23 / scenecut=40 / intra_refresh=0 / rc=2pass / mbtree=0 / bitrate=1950 / ratetol=1.0 / qcomp=0.60 / qpmin=0 / qpmax=51 / qpstep=4 / cplxblur=20.0 / qblur=0.5 / ip_ratio=1.40 / pb_ratio=1.30 / aq=1:1.00
Language : English
Default : Yes
Forced : No
Color range : Limited
Color primaries : BT.709
Transfer characteristics : BT.709
Matrix coefficients : BT.709

Audio
ID : 2
Format : AC-3
Format/Info : Audio Coding 3
Mode extension : CM (complete main)
Format settings, Endianness : Big
Codec ID : A_AC3
Duration : 2 h 3 min
Bit rate mode : Constant
Bit rate : 384 kb/s
Channel(s) : 6 channels
Channel positions : Front: L C R, Side: L R, LFE
Sampling rate : 48.0 kHz
Frame rate : 31.250 FPS (1536 spf)
Compression mode : Lossy
Stream size : 340 MiB (16%)
Title : iTunes
Language : Russian
Default : Yes
Forced : No

Menu
00:00:00.000 : en:1
00:01:39.000 : en:2
00:12:08.000 : en:3
00:21:55.000 : en:4
00:32:32.000 : en:5
00:42:45.000 : en:6
00:51:32.000 : en:7
01:00:46.000 : en:8
01:11:18.000 : en:9
01:21:43.000 : en:10
01:30:39.000 : en:11
01:42:08.000 : en:12
01:51:08.000 : en:13
02:00:03.000 : en:14




Релиз от:

Автор релиза: pb.wtf



Скачать Синонимы через торрент https://d.radikal.ru/d17/1908/1d/fc6388bc5039.png Скачать фильм Синонимы через торрент бесплантно в хорошем качестве О фильме: Израильтянин Йоав прилетает в зимний Париж в надежде, что Франция станет его новым домом, а французский язык - новым средством ... 10 10 1
Info! Золотая раздача, скачанное не засчитывается.
Торрент: Зарегистрирован [2019-09-12 02:12] · скачан: 121 раз
Статус: √ проверено
Размер: 2.02 GB
Как cкачать? Как скачать Синонимы через торрент | qTorrent

28-11-2019 20:33  

Отключить всю рекламу на сайте

    Дорогой пользователь! Огромная просьба, поблагодарите релизера, оцените раздачу и оставьте свои комментарий, если Вы скачали Синонимы через торрент бесплатно! Внесите свою лепту в развитие PiratBit!
    Комментировать посты могут только пользователи прошедшие не сложную регистрацию
    Показать сообщения:    

    Синонимы через торрент
    Скачать бесплатно Синонимы
    Синонимы скачать торрент
    Синонимы смотреть онлайн
    Cкачать фильм Синонимы бесплатно
    Синонимы скачать торрент в хорошем качестве
    Синонимы смотреть онлайн бесплатно в хорошем качестве


    Вы не можете начинать темы
    Вы не можете отвечать на сообщения
    Вы не можете редактировать свои сообщения
    Вы не можете удалять свои сообщения
    Вы не можете голосовать в опросах
    Вы не можете прикреплять файлы к сообщениям
    Вы можете скачивать файлы