Ссылка на приватное зеркало всего за 1$. Внимание количество ограничено!!!

OK

1+1

iTunes

мы

OK

1

WEB-DLRip

Джокер

Пифагор

Ведьмак / The Witcher сериал

iTunes

ПШазам

ОК

Оно 2

iTunes

30
pack

Вам бонус

ВАЖНО

!!Акция!!

Alien_RageХит недели

RePack

Resident Evil 21

ИГРА 18+

pack

RePack

jed

RePack

fifa19

RePack

Assassins Creed: Odyssey

RePack

NEED FOR SPEED™ PAYBACK

4 сезон

9 сезон

Бесстыжие 9 сезон

Все сериалы

все сериалы на PB.wtf

RePack

FAR CRY 5
  

Отпетые мошенницы / The Hustle (Крис Эддисон) [2019, Комедия, криминал, BD Remux 1080p] DUB [Лицензия] pb.wtf

Отпетые мошенницы через торрент pb.wtf

Размер: 22.09 GB | Добавлен: 4 мес. 15 д. назад | Торрент скачан:42 раза
Скачать  

12-09-2019 06:50 Отпетые мошенницы Скачать торрент  

Отпетые мошенницы / The Hustle«Плакали ваши денежки»
Год выпуска: 2019
Страна: США
Жанр: Комедия, криминал
Продолжительность: 01:33:57
Перевод: Дублированный | Лицензия
Субтитры: Русские (Forced, full), английские

Режиссер: Крис Эддисон

rating

В ролях:

Энн Хэтэуэй (Josephine Chesterfield), Ребел Уилсон (Penny Rust), Алекс Шарп (Thomas Westerburg), Ингрид Оливер (Brigitte Desjardins), Эмма Дейвис (Cathy), Дин Норрис (Howard Bacon), Тимоти С. Саймонс (Jeremy), Дагги Макмикин (Jason), Эшли Макгуайр (Policewoman), Каспер Кристенсен (Mathias), Элуиз Ловелл Андерсон (Beautiful Woman (Casino)), Филип Десмюль (Dealer)
Описание: Как стать успешной мошенницей? Всегда будь во всеоружии: высокие каблуки, яркая помада и главное - утягивающее белье. Будь готова расплакаться в любой момент. Ни один мужчина не устоит перед женскими слезами. Бери все, что «плохо лежит» и хорошо блестит. За каждым миллионом может скрываться миллиард. Не откажи себе в удовольствии проверить.

Качество: BD Remux 1080p
Формат: MKV

Видео: MPEG-4 AVC, 1920x1080, 27.8 Mbit/s, 23.976 fps
Аудио#1: 48 kHz, DTS, 5.1, 768 Kbps | Лицензия | RUS |
Аудио#2: 48 kHz, AC3, 5.1, 448 Kbps | Лицензия | RUS |
Аудио#3: 48 kHz, DTS-HD MA, 7.1, 4644 Kbps | Оригинал | ENG |
скриншот  скриншот  скриншот  скриншот  скриншот  

General
Unique ID : 113761685386829053475254325867830859755 (0x5595B421D1CE12D44D53F1459BEC57EB)
Complete name : D:Video111The.Hustle.2019.Lic.BDREMUX.1080p.seleZen.mkv
Format : Matroska
Format version : Version 4
File size : 22.1 GiB
Duration : 1 h 33 min
Overall bit rate mode : Variable
Overall bit rate : 33.7 Mb/s
Movie name : The Hustle 2019 from селезень
Encoded date : UTC 2019-09-12 05:41:51
Writing application : mkvmerge v22.0.0 ('At The End Of The World') 64-bit
Writing library : libebml v1.3.5 + libmatroska v1.4.8

Video
ID : 1
Format : AVC
Format/Info : Advanced Video Codec
Format profile : High@L4.1
Format settings : CABAC / 4 Ref Frames
Format settings, CABAC : Yes
Format settings, Reference : 4 frames
Codec ID : V_MPEG4/ISO/AVC
Duration : 1 h 33 min
Bit rate mode : Variable
Bit rate : 27.8 Mb/s
Maximum bit rate : 30.5 Mb/s
Width : 1 920 pixels
Height : 1 080 pixels
Display aspect ratio : 16:9
Frame rate mode : Constant
Frame rate : 23.976 (24000/1001) FPS
Color space : YUV
Chroma subsampling : 4:2:0
Bit depth : 8 bits
Scan type : Progressive
Bits/(Pixel*Frame) : 0.559
Stream size : 18.2 GiB (83%)
Language : English
Default : Yes
Forced : No

Audio #1
ID : 2
Format : DTS
Format/Info : Digital Theater Systems
Codec ID : A_DTS
Duration : 1 h 33 min
Bit rate mode : Constant
Bit rate : 768 kb/s
Channel(s) : 6 channels
Channel layout : C L R Ls Rs LFE
Sampling rate : 48.0 kHz
Frame rate : 93.750 FPS (512 SPF)
Bit depth : 24 bits
Compression mode : Lossy
Stream size : 516 MiB (2%)
Title : Dub [License]
Language : Russian
Default : Yes
Forced : Yes

Audio #2
ID : 3
Format : AC-3
Format/Info : Audio Coding 3
Commercial name : Dolby Digital
Codec ID : A_AC3
Duration : 1 h 33 min
Bit rate mode : Constant
Bit rate : 448 kb/s
Channel(s) : 6 channels
Channel layout : L R C LFE Ls Rs
Sampling rate : 48.0 kHz
Frame rate : 31.250 FPS (1536 SPF)
Bit depth : 16 bits
Compression mode : Lossy
Stream size : 301 MiB (1%)
Title : Dub [License]
Language : Russian
Service kind : Complete Main
Default : No
Forced : No

Audio #3
ID : 4
Format : DTS XLL
Format/Info : Digital Theater Systems
Commercial name : DTS-HD Master Audio
Codec ID : A_DTS
Duration : 1 h 33 min
Bit rate mode : Variable
Bit rate : 4 644 kb/s
Channel(s) : 8 channels
Channel layout : C L R LFE Lb Rb Lss Rss
Sampling rate : 48.0 kHz
Frame rate : 93.750 FPS (512 SPF)
Bit depth : 24 bits
Compression mode : Lossless
Stream size : 3.05 GiB (14%)
Title : Original
Language : English
Default : No
Forced : No

Text #1
ID : 5
Format : UTF-8
Codec ID : S_TEXT/UTF8
Codec ID/Info : UTF-8 Plain Text
Duration : 1 h 27 min
Bit rate : 1 b/s
Count of elements : 31
Stream size : 1.09 KiB (0%)
Title : Forced
Language : Russian
Default : Yes
Forced : Yes

Text #2
ID : 6
Format : UTF-8
Codec ID : S_TEXT/UTF8
Codec ID/Info : UTF-8 Plain Text
Duration : 1 h 32 min
Bit rate : 109 b/s
Count of elements : 1619
Stream size : 74.1 KiB (0%)
Title : Full
Language : Russian
Default : No
Forced : No

Text #3
ID : 7
Format : UTF-8
Codec ID : S_TEXT/UTF8
Codec ID/Info : UTF-8 Plain Text
Duration : 1 h 32 min
Bit rate : 72 b/s
Count of elements : 1781
Stream size : 49.4 KiB (0%)
Title : Full
Language : English
Default : No
Forced : No

Menu
00:00:00.000 : en:00:00:00.000
00:05:58.858 : en:00:05:58.858
00:09:56.137 : en:00:09:56.137
00:15:29.554 : en:00:15:29.554
00:21:12.646 : en:00:21:12.646
00:25:19.852 : en:00:25:19.852
00:32:26.903 : en:00:32:26.903
00:37:56.608 : en:00:37:56.608
00:41:51.300 : en:00:41:51.300
00:44:55.818 : en:00:44:55.818
00:49:56.327 : en:00:49:56.327
00:54:34.897 : en:00:54:34.897
00:59:16.261 : en:00:59:16.261
01:02:15.899 : en:01:02:15.899
01:06:47.587 : en:01:06:47.587
01:09:58.152 : en:01:09:58.152
01:15:16.178 : en:01:15:16.178
01:21:37.059 : en:01:21:37.059
01:28:58.833 : en:01:28:58.833
01:32:27.041 : en:01:32:27.041

pb.wtf



Скачать Отпетые мошенницы через торрент https://i87.fastpic.ru/big/2019/0903/c4/e97a562fb050587266caab5ca255cbc4.jpg Скачать фильм Отпетые мошенницы через торрент бесплантно в хорошем качестве Описание: Как стать успешной мошенницей? Всегда будь во всеоружии: высокие каблуки, яркая помада и главное - утягивающее белье. Будь готова ... 9.8 10 5
Торрент: Зарегистрирован [2019-09-12 06:50] · скачан: 42 раз
Статус: √ проверено
Размер: 22.09 GB
Как cкачать? Как скачать Отпетые мошенницы через торрент | qTorrent

% Раздел Тема Автор DL S | L
Фильмы [HD 720p, 1080p] (Хороший звук DUB, MVO) [ 8.91 GB ] Отпетые мошенницы / The Hustle [2019 BDRip 1080p] DUB [] bober100 Скачать
6 | 0
Фильмы 2019-2020 [DVDrip, WEB-DLRip, HDrip] (DUB, MVO) [ 1.46 GB ] Отпетые мошенницы / The Hustle [2019 BDRip] DUB [ Blu-Ray EUR] bober100 Скачать
3 | 0
Фильмы [HD 720p, 1080p] (Хороший звук DUB, MVO) [ 3.88 GB ] Отпетые мошенницы / The Hustle [2019 BDRip 720p] DUB [] bober100 Скачать
3 | 0
Фильмы (Blu-ray, BD-Remux, HDDVD) [ 32.8 GB ] Отпетые мошенницы / The Hustle [2019 Blu-ray EUR 1080p] DUB [] bober100 Скачать
1 | 0
Фильмы 2019-2020 [DVDrip, WEB-DLRip, HDrip] (DUB, MVO) [ 1.79 GB ] Отпетые мошенницы / The Hustle [2019 BDRip-AVC] DUB [] bober100 Скачать
3 | 0
Фильмы 2019-2020 [DVDrip, WEB-DLRip, HDrip] (DUB, MVO) [ 745 MB ] Отпетые мошенницы / The Hustle [2019 BDRip] [ ] - ExKinoRay surikmas Скачать
1 | 0
Фильмы 2019-2020 [DVDrip, WEB-DLRip, HDrip] (DUB, MVO) [ 749 MB ] Отпетые мошенницы / The Hustle [2019 BDRip] bober100 Скачать
3 | 0

28-11-2019 20:33  

Отключить всю рекламу на сайте

    Дорогой пользователь! Огромная просьба, поблагодарите релизера, оцените раздачу и оставьте свои комментарий, если Вы скачали Отпетые мошенницы через торрент бесплатно! Внесите свою лепту в развитие PiratBit!
    Комментировать посты могут только пользователи прошедшие не сложную регистрацию
    Показать сообщения:    

    Отпетые мошенницы через торрент
    Скачать бесплатно Отпетые мошенницы
    Отпетые мошенницы скачать торрент
    Отпетые мошенницы смотреть онлайн
    Cкачать фильм Отпетые мошенницы бесплатно
    Отпетые мошенницы скачать торрент в хорошем качестве
    Отпетые мошенницы смотреть онлайн бесплатно в хорошем качестве


    Вы не можете начинать темы
    Вы не можете отвечать на сообщения
    Вы не можете редактировать свои сообщения
    Вы не можете удалять свои сообщения
    Вы не можете голосовать в опросах
    Вы не можете прикреплять файлы к сообщениям
    Вы можете скачивать файлы