Ссылка на приватное зеркало нашего сайта всего за 1$. Внимание количество ограничено!!!

2 сезон

iTunes

1 сезон

1

2 сезон

2 сезон

iTunes

1 сезон

RePack

30

Новинка

ВАЖНО

ИГРА 18+

pack

RePack

MK11
pack

Забери бонус

RePack

jed

!!Акция!!

Alien_Rage

RePack

fifa19

RePack

Assassins Creed: Odyssey

RePack

NEED FOR SPEED™ PAYBACK

4 сезон

9 сезон

Бесстыжие 9 сезон

Все сериалы

все сериалы на PB.wtf

RePack

FAR CRY 5
  

Детские игры / Child's Play (Ларс Клевберг) [2019, Ужасы, WEB-DL 720p] DUB [iTunes] pb.wtf

Детские игры через торрент pb.wtf

Размер: 2.68 GB | Добавлен: 1 год 2 мес. назад | Торрент скачан:217 раз
Скачать  

12-09-2019 10:03 Детские игры Скачать торрент  

Детские игры / Child's Play
Год выпуска: 2019
Страна: Франция, Канада, США
Жанр: Ужасы
Продолжительность: 01:29:59
Перевод: Дублированный | iTunes
Субтитры: Английские

Режиссер: Ларс Клевберг

rating

В ролях: Гэбриел Бейтман, Обри Плаза, Марк Хэмилл, Брайан Тайри Генри, Тим Мэтисон, Дэвид Льюис, Ти Консильо, Марлон Казади, Беатрис Китсос, Ханна Дрю, Трент Редекоп, Эмбер Тейлор, Карлис Бёрк, Николь Энтони, Джонсон Фэн, Кристин Йорк, Миа Белла, Амро Майзуб, Вину Сандху, Оливия Пун, Кеннет Тайнен

Описание: Мать-одиночка Карен дарит своему сыну Энди куклу, о которой мечтают все дети. Однако, вскоре становится ясно, что Энди достается больше, чем просто игрушка…

Качество: WEB-DL 720p
Формат: MKV

Видео: MPEG-4 AVC, 960->1280x536, 4053 Kbit/s, 23.976 fps
Аудио: 48 kHz, AC3, 5.1, 384 Kbps | iTunes | RUS |
скриншот  скриншот  скриншот  

Общее
Уникальный идентификатор : 290931300177649064443491303513754895909 (0xDADF548D0B5485B78F6654D6394F0625)
Полное имя : C:\Child's Play.2019.WEB-DL.720p.mkv
Формат : Matroska
Версия формата : Version 4
Размер файла : 2,68 Гбайт
Продолжительность : 1 ч. 27 м.
Общий поток : 4384 Кбит/сек
Дата кодирования : UTC 2019-09-11 19:19:21
Программа кодирования : mkvmerge v8.5.1 ('Where you lead I will follow') 64bit
Библиотека кодирования : libebml v1.3.3 + libmatroska v1.4.4

Видео #1
Идентификатор : 1
Формат : AVC
Формат/Информация : Advanced Video Codec
Профиль формата : Main@L3.1
Настройки формата : 2 Ref Frames
Параметр CABAC формата : Нет
Параметр RefFrames формата : 2 кадра
Идентификатор кодека : V_MPEG4/ISO/AVC
Продолжительность : 1 ч. 26 м.
Битрейт : 4053 Кбит/сек
Ширина : 960 пикселей
Высота : 536 пикселей
Соотношение сторон : 2,40:1
Режим частоты кадров : Постоянный
Частота кадров : 25,000 кадров/сек
Цветовое пространство : YUV
Субдискретизация насыщенности : 4:2:0
Битовая глубина : 8 бит
Тип развёртки : Прогрессивная
Бит/(Пиксели*Кадры) : 0.315
Размер потока : 2,44 Гбайт (91%)
Заголовок : Main Program
Язык : English
Default : Да
Forced : Нет
Цветовой диапазон : Limited
Основные цвета : BT.709
Характеристики трансфера : BT.709
Коэффициенты матрицы : BT.709

Видео #2
Идентификатор : 3
Формат : V_QUICKTIME
Идентификатор кодека : V_QUICKTIME
Продолжительность : 1 ч. 27 м.
Битрейт : 2359 бит/сек
Ширина : 640 пикселей
Высота : 268 пикселей
Соотношение сторон : 2,40:1
Режим частоты кадров : Постоянный
Частота кадров : 0,002 кадр/сек
Бит/(Пиксели*Кадры) : 6.877
Размер потока : 1,48 Мбайт (0%)
Заголовок : Poster
Язык : Russian
Default : Нет
Forced : Нет

Аудио
Идентификатор : 2
Формат : AC-3
Формат/Информация : Audio Coding 3
Коммерческое название : Dolby Digital
Идентификатор кодека : A_AC3
Продолжительность : 1 ч. 26 м.
Вид битрейта : Постоянный
Битрейт : 384 Кбит/сек
Каналы : 6 каналов
ChannelLayout : L R C LFE Ls Rs
Частота : 48,0 КГц
Частота кадров : 31,250 кадров/сек (1536 SPF)
Битовая глубина : 16 бит
Метод сжатия : С потерями
Размер потока : 237 Мбайт (9%)
Заголовок : Russian DUB from iTunes Russia DD 5.1
Язык : Russian
ServiceKind/String : Complete Main
Default : Да
Forced : Нет

Меню
00:00:00.000 : en:Глава 1
00:08:41.640 : en:Глава 2
00:17:20.439 : en:Глава 3
00:26:01.159 : en:Глава 4
00:34:48.039 : en:Глава 5
00:44:05.839 : en:Глава 6
00:50:39.119 : en:Глава 7
00:58:14.039 : en:Глава 8
01:06:46.239 : en:Глава 9
01:14:49.279 : en:Глава 10
01:19:27.239 : en:Глава 11

pb.wtf



Скачать Детские игры через торрент https://img16.lostpic.net/2019/09/11/637453b2a547c60a86c8036d0c7c18a7.jpg Скачать фильм Детские игры через торрент бесплантно в хорошем качестве Описание: Мать-одиночка Карен дарит своему сыну Энди куклу, о которой мечтают все дети. Однако, вскоре становится ясно, что Энди достается ... 10 10 8
Info! Золотая раздача, скачанное не засчитывается.
Торрент: Зарегистрирован [2019-09-12 10:03] · скачан: 217 раз
Статус: √ проверено
Размер: 2.68 GB
Как cкачать? Как скачать Детские игры через торрент | qTorrent

28-11-2019 20:33  

Отключить всю рекламу на сайте

12-09-2019 10:56 Детские игры Скачать торрент  

ЧАКИ.. pb.wtf



12-09-2019 12:15 Детские игры Скачать торрент  

Мистер Чаки pb.wtf



12-09-2019 14:13 Детские игры Скачать торрент  

Попробую!pb.wtf



12-09-2019 17:16 Детские игры Скачать торрент  

Заценим!pb.wtf



12-09-2019 21:07 Детские игры Скачать торрент  

это типа ремейка?pb.wtf



14-09-2019 07:21 Детские игры Скачать торрент  

ого pb.wtf



    Дорогой пользователь! Огромная просьба, поблагодарите релизера, оцените раздачу и оставьте свои комментарий, если Вы скачали Детские игры через торрент бесплатно! Внесите свою лепту в развитие PiratBit!
    Комментировать посты могут только пользователи прошедшие не сложную регистрацию
    Показать сообщения:    

    Детские игры через торрент
    Скачать бесплатно Детские игры
    Детские игры скачать торрент
    Детские игры смотреть онлайн
    Cкачать фильм Детские игры бесплатно
    Детские игры скачать торрент в хорошем качестве
    Детские игры смотреть онлайн бесплатно в хорошем качестве


    Вы не можете начинать темы
    Вы не можете отвечать на сообщения
    Вы не можете редактировать свои сообщения
    Вы не можете удалять свои сообщения
    Вы не можете голосовать в опросах
    Вы не можете прикреплять файлы к сообщениям
    Вы можете скачивать файлы