новый адрес
Ссылка на приватное зеркало всего за 1$. Внимание количество ограничено!!!

iTunes

1+1

iTunes

мы

iTunes

1

iTunes

Чернобыль

iTunes

Ральф против интернета

Лицензия

ПШазам

Лицензия

Оно 2

Лицензия

30
pack

Вам бонус

ВАЖНО

!!Акция!!

Alien_RageХит недели

RePack

Resident Evil 21

ИГРА 18+

pack

RePack

jed

!!Акция!!

Alien_Rage

RePack

fifa19

RePack

Assassins Creed: Odyssey

RePack

NEED FOR SPEED™ PAYBACK

3 сезон

9 сезон

Бесстыжие 9 сезон

Все сериалы

все сериалы на PB.wtf

RePack

FAR CRY 5
Ребята, катастрофически не хватает 1900р. для оплаты серверов за Октябрь (всвязи с блокировками трафик упал в 3 раза), 1-2р., выручайте.
  

7 социопатов / 7 raons per fugir (Герард Квинто, Эстеве Солер, Дэвид Торрас) [2019 г., комедия, WEB-DLRip, Профессиональный многоголосый закадровый "iTunes"] pb.wtf

7 социопатов через торрент pb.wtf

Раздают: 4 [ 0 KB/s ]
Размер: 703 MB | Добавлен: 2 мес. 23 д. назад | Торрент скачан:243 раза
Скачать  

12-09-2019 18:25 7 социопатов Скачать торрент  

7 социопатов / 7 raons per fugir
Год выпуска: 2019
Страна: Испания / Compacto, No Hay Banda, Producciones del Interior AIE
Жанр: комедия
Продолжительность: 01:18:14
Перевод: Профессиональный многоголосый закадровый (iTunes)

Режиссер: Герард Квинто, Эстеве Солер, Дэвид Торрас

rating

В ролях: Эмма Суарес, Серхи Лопес, Лола Дуэньяс, Давид Вердагер, Ален Эрнандес, Франсеск Орелья, Алекс Брендемюль, Нурия Гаго, Маноло Соло, Айна Клотет

Описание: Жизнь сталкивает нас с ними каждый день. Неприятный сосед, коллега на работе, подруга, выходящая замуж, безумная семейка на улице, старый знакомый или хитрый продавец. И никто не знает, о чем же они думают на самом деле. Может им просто хочется вас убить? Семь историй, в которых чёрный юмор соседствует с кошмаром, а смех превращается в крики ужаса.

Качество: WEB-DLRip
Формат: AVI
Видео кодек: DivX
Аудио кодек: MP3
Видео: 640x288 (2.22:1), 24.000 fps, DivX Codec 4.x ~1119 kbps avg, 0.25 bit/pixel
Аудио: 48 kHz, MPEG Layer 3, 2 ch, ~128.00 kbps avg
скриншот   скриншот   скриншот   скриншот  

Общее
Полное имя : F:\ФИЛЬМЫ\7 социопатов.2019.WEB-DLRip.avi
Формат : AVI
Формат/Информация : Audio Video Interleave
Размер файла : 703 Мбайт
Продолжительность : 1 ч. 18 м.
Общий поток : 1257 Кбит/сек
Программа кодирования : VirtualDubMod 1.5.10.3 | www.virtualdub-fr.org || (build 2550/release)
Библиотека кодирования : VirtualDubMod build 2550/release

Видео
Идентификатор : 0
Формат : MPEG-4 Visual
Профиль формата : Advanced Simple@L5
Настройки формата : BVOP3 / GMC3 / QPel
Параметр BVOP формата : 3
Параметр QPel формата : Да
Параметр GMC формата : 3 точки перехода
Параметр матрицы формата : Default (MPEG)
Идентификатор кодека : DIVX
Идентификатор кодека/Информация : Project Mayo
Идентификатор кодека/Подсказка : DivX 4
Продолжительность : 1 ч. 18 м.
Битрейт : 1120 Кбит/сек
Ширина : 640 пикселей
Высота : 288 пикселей
Соотношение сторон : 2,222
Частота кадров : 24,000 кадра/сек
Цветовое пространство : YUV
Субдискретизация насыщенности : 4:2:0
Битовая глубина : 8 бит
Тип развёртки : Прогрессивная
Метод сжатия : С потерями
Бит/(Пиксели*Кадры) : 0.253
Размер потока : 627 Мбайт (89%)
Библиотека кодирования : XviD 1.2.1 (UTC 2008-12-04)

Аудио
Идентификатор : 1
Формат : MPEG Audio
Версия формата : Version 1
Профиль формата : Layer 3
Настройки формата : Joint stereo / MS Stereo
Идентификатор кодека : 55
Идентификатор кодека/Подсказка : MP3
Продолжительность : 1 ч. 18 м.
Вид битрейта : Постоянный
Битрейт : 128 Кбит/сек
Каналы : 2 канала
Частота : 48,0 КГц
Частота кадров : 41,667 кадра/сек (1152 SPF)
Метод сжатия : С потерями
Размер потока : 71,6 Мбайт (10%)
Выравнивание : Соединение по промежуткам
Продолжительность промежутка : 42 мс. (1,00 видеокадр)
Время предзагрузки промежутка : 504 мс.
Библиотека кодирования : LAME3.99r
Настройки программы : -m j -V 4 -q 2 -lowpass 17 -b 128

pb.wtf



Скачать 7 социопатов через торрент http://pic1.kartinco.top/images/12/rmr4t.jpg Скачать фильм 7 социопатов через торрент бесплантно в хорошем качестве Описание: Жизнь сталкивает нас с ними каждый день. Неприятный сосед, коллега на работе, подруга, выходящая замуж, безумная семейка на ... 10 10 7
Торрент: Зарегистрирован [2019-09-12 18:25] · скачан: 243 раз
Статус: √ проверено
Размер: 703 MB
Как cкачать? Как скачать 7 социопатов через торрент | qTorrent

% Раздел Тема Автор DL S | L
Фильмы (WEB-DL 720p, 1080p) [ 2.71 GB ] 7 социопатов / 7 raons per fugir [2019 WEB-DL 1080p] MVO bober100 Скачать
7 | 0
Отключить всю рекламу на сайте
    Дорогой пользователь! Огромная просьба, поблагодарите релизера, оцените раздачу и оставьте свои комментарий, если Вы скачали 7 социопатов через торрент бесплатно! Внесите свою лепту в развитие PiratBit!
    Комментировать посты могут только пользователи прошедшие не сложную регистрацию
    Показать сообщения:    

    7 социопатов через торрент
    Скачать бесплатно 7 социопатов
    7 социопатов скачать торрент
    7 социопатов смотреть онлайн
    Cкачать фильм 7 социопатов бесплатно
    7 социопатов скачать торрент в хорошем качестве
    7 социопатов смотреть онлайн бесплатно в хорошем качестве


    Вы не можете начинать темы
    Вы не можете отвечать на сообщения
    Вы не можете редактировать свои сообщения
    Вы не можете удалять свои сообщения
    Вы не можете голосовать в опросах
    Вы не можете прикреплять файлы к сообщениям
    Вы можете скачивать файлы