новый адрес
Ссылка на приватное зеркало всего за 1$. Внимание количество ограничено!!!

iTunes

1+1

iTunes

мы

WEB-DL

1

iTunes

Чернобыль

iTunes

Ральф против интернета

Лицензия

ПШазам

Лицензия

Оно 2

Лицензия

30
pack

Вам бонус

ВАЖНО

!!Акция!!

Alien_RageХит недели

RePack

Resident Evil 21

ИГРА 18+

pack

RePack

jed

!!Акция!!

Alien_Rage

RePack

fifa19

RePack

Assassins Creed: Odyssey

RePack

NEED FOR SPEED™ PAYBACK

3 сезон

9 сезон

Бесстыжие 9 сезон

Все сериалы

все сериалы на PB.wtf

RePack

FAR CRY 5
Ребята, катастрофически не хватает 1900р. для оплаты серверов за Октябрь (всвязи с блокировками трафик упал в 3 раза), 1-2р., выручайте.
  

Дылда / Tall Girl (Зинга Стюарт) [2019, Комедия, WEBRip] DUB [Пифагор] pb.wtf

Дылда через торрент pb.wtf

Раздают: 3 [ 0 KB/s ]
Размер: 1.45 GB | Добавлен: 2 мес. 23 д. назад | Торрент скачан:252 раза
Скачать  

13-09-2019 09:31 Дылда Скачать торрент  

Дылда / Tall Girl
Год выпуска: 2019
Страна: США
Жанр: Комедия
Продолжительность: 01:42:41
Перевод: Дублированный | Пифагор по заказу Netflix
Субтитры: русские (форс.вшитые)

Режиссер: Зинга Стюарт

rating

В ролях: Ава Мишель, Сабрина Карпентер, Анджела Кинси, Пэрис Берелс, Люк Эйснер, Стив Зан, Гриффин Глюк, Кэнди Брукс, Эми Ле, Conway Solomon и др.

Описание: Джоди, самая высокая девушка в школе, всегда чувствовала себя неловко в собственной шкуре. Но после многих лет насмешек и избегания внимания любой ценой, Джоди, наконец, решает обрести уверенность в себе.

Качество: WEBRip
Формат: AVI

Видео: Xvid 73, 720x304, ~1566 kbps, 23,976 fps
Аудио: русский, AC3, 5.1 ch, 48 kHz, 448 kbps
скриншот  скриншот  скриншот  скриншот  скриншот  

Общее
Полное имя : G:Torrent2TallGirlWEBRip.avi
Формат : AVI
Формат/Информация : Audio Video Interleave
Профиль формата : OpenDML
Размер файла : 1,45 Гбайт
Продолжительность : 1 ч. 42 м.
Общий поток : 2026 Кбит/сек
Программа кодирования : XviD4PSP 6.0 / 53.6.0

Видео
Идентификатор : 0
Формат : MPEG-4 Visual
Профиль формата : Advanced Simple@L5
Настройки формата : BVOP1 / Custom Matrix
Параметр BVOP формата : 1
Параметр QPel формата : Нет
Параметр GMC формата : Без точки перехода
Параметр матрицы формата : Выборочная
Идентификатор кодека : XVID
Идентификатор кодека/Подсказка : XviD
Продолжительность : 1 ч. 42 м.
Битрейт : 1566 Кбит/сек
Ширина : 720 пикселей
Высота : 304 пикселя
Соотношение сторон : 2,35:1
Частота кадров : 23,976 (23976/1000) кадра/сек
Цветовое пространство : YUV
Субдискретизация насыщенности : 4:2:0
Битовая глубина : 8 бит
Тип развёртки : Прогрессивная
Метод сжатия : С потерями
Бит/(Пиксели*Кадры) : 0.298
Размер потока : 1,12 Гбайт (77%)
Библиотека кодирования : XviD 73

Аудио
Идентификатор : 1
Формат : AC-3
Формат/Информация : Audio Coding 3
Параметр Endianness формата : Big
Идентификатор кодека : 2000
Продолжительность : 1 ч. 42 м.
Вид битрейта : Постоянный
Битрейт : 448 Кбит/сек
Каналы : 6 каналов
Расположение каналов : Front: L C R, Side: L R, LFE
Частота : 48,0 КГц
Частота кадров : 31,250 кадров/сек (1536 SPF)
Битовая глубина : 16 бит
Метод сжатия : С потерями
Размер потока : 329 Мбайт (22%)
Выравнивание : Соединение по промежуткам
Продолжительность промежутка : 32 мс. (0,77 видеокадр)

pb.wtf



Скачать Дылда через торрент http://lostpix.com/thumbs/2019-09/12/jlnkyt4qi7n5ak2cbcw50ewh5.png Скачать фильм Дылда через торрент бесплантно в хорошем качестве Описание: Джоди, самая высокая девушка в школе, всегда чувствовала себя неловко в собственной шкуре. Но после многих лет насмешек и ... 10 10 5
Торрент: Зарегистрирован [2019-09-13 09:31] · скачан: 252 раз
Статус: √ проверено
Размер: 1.45 GB
Как cкачать? Как скачать Дылда через торрент | qTorrent

% Раздел Тема Автор DL S | L
Фильмы (WEB-DL 720p, 1080p) [ 2.47 GB ] Дылда / Tall Girl [2019 WEBRip 720p] DUB [Пифагор] bober100 Скачать
2 | 0
Фильмы 2019 [DVDrip, WEB-DLRip, HDrip] (DUB, MVO) [ 1.63 GB ] Дылда / Tall Girl [2019 WEB-DLRip-AVC] DUB [Пифагор] bober100 Скачать
4 | 0
Фильмы (WEB-DL 720p, 1080p) [ 3.95 GB ] Дылда / Tall Girl [2019 WEBRip 1080p] DUB [Пифагор] bober100 Скачать
2 | 0

28-11-2019 20:33  

Отключить всю рекламу на сайте


    Дорогой пользователь! Огромная просьба, поблагодарите релизера, оцените раздачу и оставьте свои комментарий, если Вы скачали Дылда через торрент бесплатно! Внесите свою лепту в развитие PiratBit!
    Комментировать посты могут только пользователи прошедшие не сложную регистрацию
    Показать сообщения:    

    Дылда через торрент
    Скачать бесплатно Дылда
    Дылда скачать торрент
    Дылда смотреть онлайн
    Cкачать фильм Дылда бесплатно
    Дылда скачать торрент в хорошем качестве
    Дылда смотреть онлайн бесплатно в хорошем качестве


    Вы не можете начинать темы
    Вы не можете отвечать на сообщения
    Вы не можете редактировать свои сообщения
    Вы не можете удалять свои сообщения
    Вы не можете голосовать в опросах
    Вы не можете прикреплять файлы к сообщениям
    Вы можете скачивать файлы