2 сезон

iTunes

1 сезон

1

iTunes

iTunes

iTunes

1 сезон

RePack

30

ИГРА 18+

pack

ВАЖНО

!!Акция!!

Alien_RageХит недели

RePack

MK11
pack

Забери бонус

RePack

jed

!!Акция!!

Alien_Rage

RePack

fifa19

RePack

Assassins Creed: Odyssey

RePack

NEED FOR SPEED™ PAYBACK

4 сезон

9 сезон

Бесстыжие 9 сезон

Все сериалы

все сериалы на PB.wtf

RePack

FAR CRY 5
  

Мама Маша / Серии: 1-2 из 2 (Андрей Симонов) [2019, Криминал, мелодрама, драма, SATRip] pb.wtf

Мама Маша через торрент pb.wtf

Размер: 2.39 GB | Добавлен: 1 год 1 мес. назад | Торрент скачан:98 раз
Скачать  

14-09-2019 12:26 Мама Маша Скачать торрент  

Мама Маша Год выпуска: 2019
Производство: Россия, Кинокомпания «Калейдоскоп фильм», «BBG Продакшн»
Жанр: Криминал, мелодрама, драма
Продолжительность: ~ 01:40:00
Субтитры: Отсутствуют

Режиссёр: Андрей Симонов

В ролях: Анна Якунина, Александр Смирнов (XV), Дмитрий Богдан, Мария Романова, Яна Палецкая, Софья Лукьянова, Игорь Скрипко, Александр Миронов (III), Виктор Рябов, Василий Мичков, Александр Смирнов (IV), Сергей Покопцев, Юлия Абрамова (II), Артём Федотов

Описание: Мария Хрупова бросает все дела и мчится из родной деревни в Москву, как только узнает, что её воспитанник и племянник Олег попал под следствие. Его обвиняют в нападении на молодую девушку. Мария воспитала Олега как родного сына и ни за что не поверит в его вину. Она уверена, что дело сфабриковано, а следователи даже не пытаются искать настоящего преступника. Она решает во что бы то ни стало узнать правду и поэтому… похищает из больницы пострадавшую девушку.

Автор релиза:
Премьера: 14 сентября 2019 года (Росссия-1)
Реклама: Отсутствует
Сэмпл: http://multi-up.com/1241164

Качество: SATRip
Формат: AVI
Видео кодек: XviD
Аудио кодек: MP3

Видео: XviD, 720x400, ~ 1700 Кбит/с, 0.236 bit/pixel
Аудио: МР3, 2 ch, 192 Кбит/с
Общее
Полное имя : D:\Мама.Маша.XviD.2019.SATRip.7turza.Мама.Маша.7turza.avi
Формат : AVI
Формат/Информация : Audio Video Interleave
Размер файла : 1,33 Гбайт
Продолжительность : 1 ч. 40 м.
Общий поток : 1902 Кбит/сек
Программа кодирования : Lavf58.20.100
Библиотека кодирования : VirtualDub build 35576/release

Видео
Идентификатор : 0
Формат : MPEG-4 Visual
Профиль формата : Advanced Simple@L5
Настройки формата : BVOP1
Параметр BVOP формата : 1
Параметр QPel формата : Нет
Параметр GMC формата : Без точки перехода
Параметр матрицы формата : Default (H.263)
Идентификатор кодека : XVID
Идентификатор кодека/Подсказка : XviD
Продолжительность : 1 ч. 40 м.
Битрейт : 1697 Кбит/сек
Ширина : 720 пикселей
Высота : 400 пикселей
Соотношение сторон : 16:9
Частота кадров : 25,000 кадров/сек
Цветовое пространство : YUV
Субдискретизация насыщенности : 4:2:0
Битовая глубина : 8 бит
Тип развёртки : Прогрессивная
Бит/(Пиксели*Кадры) : 0.236
Размер потока : 1,19 Гбайт (89%)
Библиотека кодирования : XviD 67

Аудио
Идентификатор : 1
Формат : MPEG Audio
Версия формата : Version 1
Профиль формата : Layer 3
Настройки формата : Joint stereo / MS Stereo
Идентификатор кодека : 55
Идентификатор кодека/Подсказка : MP3
Продолжительность : 1 ч. 40 м.
Вид битрейта : Постоянный
Битрейт : 192 Кбит/сек
Каналы : 2 канала
Частота : 48,0 КГц
Размер потока : 137 Мбайт (10%)
Выравнивание : Соединение по промежуткам
Продолжительность промежутка : 24 мс. (0,60 видеокадр)
Время предзагрузки промежутка : 504 мс.
Библиотека кодирования : LAME3.100ªªªªªªªªª
Внимание! Раздача ведётся путём добавления новых серий; при каждом добавлении создаётся новый торрент.
Чтобы начать докачку новой серии, пользователям необходимо сделать следующее:
1. Остановить скачивание;
2. Удалить старый торрент у себя из клиента (старые серии удалять не надо);
3. Скачать новый торрент и запустить его у себя в клиенте вместо старого, при этом указать клиенту путь в старую папку куда и должно происходить скачивание новых серий. Ваш клиент при этом должен произвести хеширование (проверку) старой папки и будет докачивать только те серии, которых у вас ещё нет. Старые серии при этом не удаляются, а продолжают раздаваться! Eсли вы уже удалили старые серии, то предотвратить повторную закачку старых серий можно, отжав галочку в соответствующих местах при запуске нового торрента.
pb.wtf



Скачать Мама Маша через торрент https://c.radikal.ru/c13/1909/0a/12d191433138.jpg Скачать фильм Мама Маша через торрент бесплантно в хорошем качестве Описание: Мария Хрупова бросает все дела и мчится из родной деревни в Москву, как только узнает, что её воспитанник и племянник Олег попал ... 10 10 6
Торрент: Зарегистрирован [2019-09-14 15:10] · скачан: 98 раз
Статус: √ проверено
Размер: 2.39 GB
Как cкачать? Как скачать Мама Маша через торрент | qTorrent

% Раздел Тема Автор DL S | L
Зарубежные сериалы [ 2.06 GB ] Мамаша / SMILF / Сезон: 2 / Серии: 1-6 из 10 [2019 WEB-DLRip] [MVO] killermax2013 Скачать
1 | 0
Зарубежные сериалы [ 7.06 GB ] Мамаша / SMILF / Сезон: 2 / Серии: 1-6 из 10 [2019 WEB-DL 720p] [MVO] killermax2013 Скачать
1 | 0

28-11-2019 20:33  

Отключить всю рекламу на сайте

    Дорогой пользователь! Огромная просьба, поблагодарите релизера, оцените раздачу и оставьте свои комментарий, если Вы скачали Мама Маша через торрент бесплатно! Внесите свою лепту в развитие PiratBit!
    Комментировать посты могут только пользователи прошедшие не сложную регистрацию
    Показать сообщения:    

    Мама Маша через торрент
    Скачать бесплатно Мама Маша
    Мама Маша скачать торрент
    Мама Маша смотреть онлайн
    Cкачать фильм Мама Маша бесплатно
    Мама Маша скачать торрент в хорошем качестве
    Мама Маша смотреть онлайн бесплатно в хорошем качестве


    Вы не можете начинать темы
    Вы не можете отвечать на сообщения
    Вы не можете редактировать свои сообщения
    Вы не можете удалять свои сообщения
    Вы не можете голосовать в опросах
    Вы не можете прикреплять файлы к сообщениям
    Вы можете скачивать файлы