Ссылка на приватное зеркало нашего сайта всего за 1$. Внимание количество ограничено!!!

2 сезон

iTunes

1 сезон

1

2 сезон

2 сезон

iTunes

1 сезон

RePack

30

Новинка

ВАЖНО

ИГРА 18+

pack

RePack

MK11
pack

Забери бонус

RePack

jed

!!Акция!!

Alien_Rage

RePack

fifa19

RePack

Assassins Creed: Odyssey

RePack

NEED FOR SPEED™ PAYBACK

4 сезон

9 сезон

Бесстыжие 9 сезон

Все сериалы

все сериалы на PB.wtf

RePack

FAR CRY 5
  

Голоса с того света / Мёртвые не разговариваю / Morto Não Fala (Деннисон Рамалью) [2018, Ужасы, триллер, мистика, WEB-DL 1080p] DUB [iTunes] pb.wtf

Голоса с того света через торрент pb.wtf

Раздают: 4 [ 497 KB/s ]
Размер: 3.8 GB | Добавлен: 1 год 2 мес. назад | Торрент скачан:465 раз
Скачать  

14-09-2019 20:16 Голоса с того света Скачать торрент  

Голоса с того света / Мёртвые не разговариваю / Morto Não Fala
Год выпуска: 2018
Страна: Бразилия
Жанр: Ужасы, триллер, мистика
Продолжительность: 01:50:19
Перевод: Дублированный | iTunes
Субтитры: отсутствуют

Режиссер: Деннисон Рамалью

rating

В ролях: Даниэль де Оливейра, Фабиула Нассименту, Бьянка Компрату, Маркос Клигман, Анналара Пратес, Марку Рикка

Описание: Стенио работает по ночам в морге большого криминального города, поэтому постоянно видит тела жертв бандитских разборок в самых разных невообразимых состояниях. Другой бы на его месте отчаялся, но только не Стенио — мёртвые разговаривают с ним. В прямом смысле. У мужчины оккультный дар с рождения, который он может использовать в своих интересах — мертвецы доверяют ему свои секреты. Однажды от очередного трупа Стенио узнаёт, что жена изменяет ему с соседом.

Качество: WEB-DL 1080p
Формат: MKV

Видео: MPEG-4 AVC, 4455 Кбит/с, 1920x806
Аудио: 48 kHz, AC3 Dolby Digital, 3/2 (L,C,R,l,r) + LFE ch, ~384 kbps
скриншот  скриншот  скриншот  скриншот  скриншот  

General
Уникальный идентификатор : 180220165102376077786277527980294677277 (0x879524294ECF39BD92F7B37257DA231D)
Полное имя : D:\GOLOSA_S_TOGO_SVETA_2018_WEB-DL_1080p-BLUEBIRD.mkv
Формат : Matroska
Версия формата : Version 4 / Version 2
Размер файла : 3.80 GiB
Продолжительность : 1 h 50 min
Общий поток : 4 937 kb/s
Название фильма : GOLOSA_S_TOGO_SVETA_2018_WEB-DL_1080p-BLUEBIRD
Дата кодирования : UTC 2019-09-14 18:25:48
Программа кодирования : mkvmerge v6.9.1 ('Blue Panther') 32bit built on Apr 18 2014 18:15:44
Библиотека кодирования : libebml v1.3.0 + libmatroska v1.4.1
Обложка : Yes
Attachments : cover.png

Video
Идентификатор : 1
Формат : AVC
Формат/Информация : Advanced Video Codec
Профиль формата : High@L4
Настройки формата : CABAC / 5 Ref Frames
Параметр CABAC формата : Yes
Параметр RefFrames формата : 5 frames
Идентификатор кодека : V_MPEG4/ISO/AVC
Продолжительность : 1 h 50 min
Битрейт : 4 455 kb/s
Ширина : 1 920 pixels
Высота : 806 pixels
Соотношение сторон : 2.40:1
Режим частоты кадров : Constant
Частота кадров : 24.000 FPS
Цветовое пространство : YUV
Субдискретизация насыщенности : 4:2:0
Битовая глубина : 8 bits
Тип развёртки : Progressive
Бит/(Пиксели*Кадры) : 0.120
Размер потока : 3.43 GiB (90%)
Заголовок : GOLOSA_S_TOGO_SVETA_2018_WEB-DL_1080p-BLUEBIRD
Язык : English
Default : Yes
Forced : No
Цветовой диапазон : Limited
Основные цвета : BT.709
Характеристики трансфера : BT.709
Коэффициенты матрицы : BT.709

Audio
Идентификатор : 2
Формат : AC-3
Формат/Информация : Audio Coding 3
Идентификатор кодека : A_AC3
Продолжительность : 1 h 50 min
Вид битрейта : Constant
Битрейт : 384 kb/s
Каналы : 6 channels
Расположение каналов : Front: L C R, Side: L R, LFE
Частота : 48.0 kHz
Частота кадров : 31.250 FPS (1536 SPF)
Битовая глубина : 16 bits
Метод сжатия : Lossy
Размер потока : 303 MiB (8%)
Заголовок : [DUB] DD 5.1 @ 384 kbps (iTunes)
Язык : Russian
ServiceKind/String : Complete Main
Default : Yes
Forced : No

Menu
00:00:00.000 : en:Глава 1
00:05:05.166 : en:Глава 2
00:12:35.249 : en:Глава 3
00:19:22.790 : en:Глава 4
00:25:39.290 : en:Глава 5
00:31:23.498 : en:Глава 6
00:37:26.664 : en:Глава 7
00:43:08.872 : en:Глава 8
00:50:54.913 : en:Глава 9
00:55:10.829 : en:Глава 10
01:01:43.787 : en:Глава 11
01:10:58.953 : en:Глава 12
01:20:30.536 : en:Глава 13
01:26:52.994 : en:Глава 14
01:32:20.369 : en:Глава 15
01:43:49.119 : en:Глава 16
pb.wtf



Скачать Голоса с того света через торрент https://c.radikal.ru/c28/1909/2b/89160fe57584.png Скачать фильм Голоса с того света через торрент бесплантно в хорошем качестве Описание: Стенио работает по ночам в морге большого криминального города, поэтому постоянно видит тела жертв бандитских разборок в самых ... 10 10 14
Info! Золотая раздача, скачанное не засчитывается.
Торрент: Зарегистрирован [2019-09-15 01:26] · скачан: 465 раз
Статус: √ проверено
Размер: 3.8 GB
Как cкачать? Как скачать Голоса с того света через торрент | qTorrent

% Раздел Тема Автор DL S | L
Фильмы [HD 720p, 1080p] (Хороший звук DUB, MVO) [ 9.7 GB ] Голоса с того света / Мёртвые не разговариваю / Morto Não Fala [2018 BDRip 1080p] bober100 Скачать
2 | 0
Фильмы 2018 [DVDrip, WEB-DLRip, HDrip] (DUB, MVO) [ 1.46 GB ] Голоса с того света / Мёртвые не разговариваю / Morto Não Fala [2018 BDRip] bober100 Скачать
8 | 0
Фильмы 2018 [DVDrip, WEB-DLRip, HDrip] (DUB, MVO) [ 745 MB ] Голоса с того света / Мёртвые не разговариваю / Morto Não Fala [2018 BDRip] bober100 Скачать
3 | 0
Фильмы 2018 [DVDrip, WEB-DLRip, HDrip] (DUB, MVO) [ 1.67 GB ] Голоса с того света / Мёртвые не разговариваю / Morto Não Fala [2018 WEB-DLRip-AVC] bober100 Скачать
2 | 0

28-11-2019 20:33  

Отключить всю рекламу на сайте

27-09-2019 16:16 Голоса с того света Скачать торрент  

Хороший фильмец!pb.wtf



    Дорогой пользователь! Огромная просьба, поблагодарите релизера, оцените раздачу и оставьте свои комментарий, если Вы скачали Голоса с того света через торрент бесплатно! Внесите свою лепту в развитие PiratBit!
    Комментировать посты могут только пользователи прошедшие не сложную регистрацию
    Показать сообщения:    

    Голоса с того света через торрент
    Скачать бесплатно Голоса с того света
    Голоса с того света скачать торрент
    Голоса с того света смотреть онлайн
    Cкачать фильм Голоса с того света бесплатно
    Голоса с того света скачать торрент в хорошем качестве
    Голоса с того света смотреть онлайн бесплатно в хорошем качестве


    Вы не можете начинать темы
    Вы не можете отвечать на сообщения
    Вы не можете редактировать свои сообщения
    Вы не можете удалять свои сообщения
    Вы не можете голосовать в опросах
    Вы не можете прикреплять файлы к сообщениям
    Вы можете скачивать файлы