новый адрес пиратбит piratbit
Мега распродажа FORZA HORIZON 4 ULTIMATE+ВСЕ DLC+ОНЛАЙН всего за 499р. 349 руб. (супер цена). Внимание количество ограничено!!!

iTunes

1+1

iTunes

мы

iTunes

1

iTunes

Чернобыль

iTunes

Ральф против интернета

Лицензия

ПШазам

Лицензия

Игра престолов

Лицензия

30
pack

ВАЖНО

!!Акция!!

Alien_RageХит недели

RePack

Resident Evil 21

ИГРА 18+

pack

RePack

Metro:Exodus

!!Акция!!

Alien_Rage

RePack

fifa19

RePack

Assassins Creed: Odyssey

RePack

NEED FOR SPEED™ PAYBACK

3 сезон

9 сезон

Бесстыжие 9 сезон

Все сериалы

все сериалы на PB.wtf

RePack

FAR CRY 5
Ребята, катастрофически не хватает 1900р. для оплаты серверов за Октябрь (всвязи с блокировками трафик упал в 3 раза), 1-2р., выручайте.
  

Дылда (Кантемир Балагов) [2019, драма, WEB-DLRip-AVC] iTunes - ExKinoRay pb.wtf

Дылда через торрент pb.wtf

Раздают: 6 [ 60 KB/s ]
Размер: 2.76 GB | Добавлен: 1 мес. 8 д. назад | Торрент скачан:144 раза
Скачать  

15-09-2019 03:30 Дылда Скачать торрент  

Название: Дылда
Год выхода: 2019
Жанр: Драма
Режиссер: Кантемир Балагов
В ролях: Виктория Мирошниченко, Василиса Перелыгина, Андрей Быков, Игорь Широков, Константин Балакирев, Ксения Кутепова, Ольга Драгунова, Тимофей Глазков

Описание:В центре сюжета фильма, частично основанного на документальной книге Светланы Алексиевич, лежит история Марии и Ие — девушек, которые после завершения Великой Отечественной войны возвращаются в переживший блокаду Ленинград. Героини принимают активное участие в восстановлении полуразрушенной северной столицы, а также стараются оправиться после смерти близких людей и найти себя в мирной жизни. Но вскоре девушки осознают, что разрушенный город отстроить гораздо проще, чем справиться с опустошением и разрухой внутри себя...

rating

Страна: Россия
Студия: Нон-стоп Продакшн
Продолжительность: 02:17:12
Перевод: Русский язык

Формат: MKV
Качество: WEB-DLRip-AVC
Видео: MPEG-4 AVC, 1024x552 (1.85:1), 23.976 fps, 2499 Kbps, 0.184 bit/pixel
Аудио 1: 48 kHz, AC3, 5.1, 384 Kbps| RUS |
General
Unique ID : 233139806747730528278623749022123035941 (0xAF6517EFE7B23BB580B4A27ACF3C0D25)
Complete name : F:\DYLDA.2019.WEb-DL.AVC.ExKinoRay.mkv
Format : Matroska
Format version : Version 2
File size : 2.76 GiB
Duration : 2 h 17 min
Overall bit rate : 2 884 kb/s
Movie name : Dylda 2019 from ExKinoRay
Encoded date : UTC 2019-10-04 03:26:06
Writing application : mkvmerge v5.6.0 ('Kenya Kane') built on May 27 2012 16:44:04
Writing library : libebml v1.2.3 + libmatroska v1.3.0

Video
ID : 1
Format : AVC
Format/Info : Advanced Video Codec
Format profile : High@L4.1
Format settings, CABAC : Yes
Format settings, ReFrames : 11 frames
Codec ID : V_MPEG4/ISO/AVC
Duration : 2 h 17 min
Bit rate : 2 499 kb/s
Width : 1 024 pixels
Height : 552 pixels
Display aspect ratio : 1.85:1
Frame rate mode : Constant
Frame rate : 23.976 (23976/1000) FPS
Color space : YUV
Chroma subsampling : 4:2:0
Bit depth : 8 bits
Scan type : Progressive
Bits/(Pixel*Frame) : 0.184
Stream size : 2.34 GiB (85%)
Title : Enigma
Writing library : x264 core 152 r2851 ba24899
Encoding settings : cabac=1 / ref=11 / deblock=1:-2:-2 / analyse=0x3:0x113 / me=umh / subme=10 / psy=1 / psy_rd=0.98:0.05 / mixed_ref=1 / me_range=32 / chroma_me=1 / trellis=2 / 8x8dct=1 / cqm=0 / deadzone=21,11 / fast_pskip=0 / chroma_qp_offset=-3 / threads=12 / lookahead_threads=3 / sliced_threads=0 / nr=0 / decimate=0 / interlaced=0 / bluray_compat=0 / constrained_intra=0 / bframes=10 / b_pyramid=2 / b_adapt=2 / b_bias=0 / direct=3 / weightb=1 / open_gop=0 / weightp=2 / keyint=240 / keyint_min=23 / scenecut=40 / intra_refresh=0 / rc=2pass / mbtree=0 / bitrate=2499 / ratetol=1.0 / qcomp=0.60 / qpmin=0 / qpmax=51 / qpstep=4 / cplxblur=20.0 / qblur=0.5 / ip_ratio=1.40 / pb_ratio=1.30 / aq=2:0.90
Language : English
Default : Yes
Forced : No
Color range : Limited
Color primaries : BT.709
Transfer characteristics : BT.709
Matrix coefficients : BT.709

Audio
ID : 2
Format : AC-3
Format/Info : Audio Coding 3
Mode extension : CM (complete main)
Format settings, Endianness : Big
Codec ID : A_AC3
Duration : 2 h 17 min
Bit rate mode : Constant
Bit rate : 384 kb/s
Channel(s) : 6 channels
Channel positions : Front: L C R, Side: L R, LFE
Sampling rate : 48.0 kHz
Frame rate : 31.250 FPS (1536 spf)
Compression mode : Lossy
Stream size : 377 MiB (13%)
Language : Russian
Default : Yes
Forced : No

Menu
00:00:00.000 : en:1
00:01:00.000 : en:2
00:10:49.000 : en:3
00:18:45.000 : en:4
00:27:56.000 : en:5
00:39:12.000 : en:6
00:50:03.000 : en:7
00:59:44.000 : en:8
01:10:22.000 : en:9
01:21:56.000 : en:10
01:29:53.000 : en:11
01:40:53.000 : en:12
01:51:39.000 : en:13
02:02:06.000 : en:14
02:12:45.000 : en:15


Релиз от:

Автор релиза: pb.wtf



Скачать Дылда через торрент http://i1.imageban.ru/out/2019/07/14/06510cbaef1170e3c2eb64e8f9f9891e.jpg Скачать фильм Дылда через торрент бесплантно в хорошем качестве Описание:В центре сюжета фильма, частично основанного на документальной книге Светланы Алексиевич, лежит история Марии и Ие — девушек, ... 10 10 5
Info! Золотая раздача, скачанное не засчитывается.
Торрент: Зарегистрирован [2019-10-04 04:11] · скачан: 144 раз
Статус: √ проверено
Размер: 2.76 GB
Как cкачать? Как скачать Дылда через торрент | qTorrent


>> Регистрируемся здесь <<






Отзывы и комментарии о схеме читаем и пишем здесь: ---> Отзывы и комментарии о схеме

Новые благодарочки в телеграм довольных пользователей:
скриншот   скриншот   скриншот   скриншот   скриншот

04-10-2019 04:12 Дылда Скачать торрент  

Замена на iTunes.pb.wtf



    Дорогой пользователь! Огромная просьба, поблагодарите релизера, оцените раздачу и оставьте свои комментарий, если Вы скачали Дылда через торрент бесплатно! Внесите свою лепту в развитие PiratBit!
    Комментировать посты могут только пользователи прошедшие не сложную регистрацию
    Показать сообщения:    

    Дылда через торрент
    Скачать бесплатно Дылда
    Дылда скачать торрент
    Дылда смотреть онлайн
    Cкачать фильм Дылда бесплатно
    Дылда скачать торрент в хорошем качестве
    Дылда смотреть онлайн бесплатно в хорошем качестве


    Вы не можете начинать темы
    Вы не можете отвечать на сообщения
    Вы не можете редактировать свои сообщения
    Вы не можете удалять свои сообщения
    Вы не можете голосовать в опросах
    Вы не можете прикреплять файлы к сообщениям
    Вы можете скачивать файлы