новый адрес
Ссылка на приватное зеркало всего за 1$. Внимание количество ограничено!!!

iTunes

1+1

iTunes

мы

WEB-DL

1

iTunes

Чернобыль

iTunes

Ральф против интернета

Лицензия

ПШазам

Лицензия

Оно 2

Лицензия

30
pack

Вам бонус

ВАЖНО

!!Акция!!

Alien_RageХит недели

RePack

Resident Evil 21

ИГРА 18+

pack

RePack

jed

!!Акция!!

Alien_Rage

RePack

fifa19

RePack

Assassins Creed: Odyssey

RePack

NEED FOR SPEED™ PAYBACK

3 сезон

9 сезон

Бесстыжие 9 сезон

Все сериалы

все сериалы на PB.wtf

RePack

FAR CRY 5
Ребята, катастрофически не хватает 1900р. для оплаты серверов за Октябрь (всвязи с блокировками трафик упал в 3 раза), 1-2р., выручайте.
  

Переходим к любви (Алексей Мишурин, Олег Фиалко) [1975, мелодрама, SATRip-AVC от KORSAR] pb.wtf

Переходим к любви через торрент pb.wtf

Раздают: 1 [ 0 KB/s ]
Размер: 1.75 GB | Добавлен: 2 мес. 24 д. назад | Торрент скачан:8 раз
Скачать  

15-09-2019 12:24 Переходим к любви Скачать торрент  

Переходим к любви

Жанр: мелодрама
Год выпуска: 1975
Продолжительность: 01:03:28 + 01:03:09
Режиссёр: Алексей Мишурин, Олег Фиалко
В ролях: Владимир Конкин, Геннадий Корольков, Тамара Трач, Светлана Родина, Татьяна Митрушина, Андрей Вертоградов, Вера Придаевич, Анатолий Гаричев, Наталья Наум, Аркадий Трощановский

Описание: По мотивам одноименного романа Павла Загребельного.
Рабочий Дмитрий Череда — известный человек на заводе, о нем пишут в газетах. Первым разочарованием в жизни Дмитрия стала неразделенная любовь к начинающей певице Валерии. Думая о своей артистической карьере, она легко расстается с рабочим парнем. Но именно в эти тяжелые для него дни Дмитрий узнает, что его давно любит Клементина, с которой он давно знаком. Девушка намного моложе Дмитрия, и раньше он особого внимания на нее не обращал...

Релиз от:

Качество: SATRip-AVC
Формат: MKV

Видео: MPEG-4 AVC, 538x572@802x572, 25 fps, 1819 Кбит/с
Аудио: AC3, 2 ch, 256 Кбит/с
Язык: Русский

  • x264 [info]: frame I:472 Avg QP:17.45 size: 55340
  • x264 [info]: frame P:21818 Avg QP:19.10 size: 23690
  • x264 [info]: frame B:73171 Avg QP:21.24 size: 4707
  • x264 [info]: consecutive B-frames: 2.2% 3.5% 9.5% 19.7% 21.9% 35.0% 4.6% 1.9% 0.9% 0.6% 0.1% 0.1%
Общее
Уникальный идентификатор : 185466445863855326557878532252872598155 (0x8B8789C5F4E0CB86B75FF136AB85E28B)
Полное имя : D:\Переходим к любви_1975-SATRip-AVC_KORSAR\Переходим к любви-1.mkv
Формат : Matroska
Версия формата : Version 2
Размер файла : 964 Мбайт
Продолжительность : 1 ч. 3 м.
Общий поток : 2117 Кбит/сек
Название фильма : Переходим к любви_1975-SATRip-AVC_KORSAR
Дата кодирования : UTC 2019-09-06 18:12:43
Программа кодирования : mkvmerge v5.8.0 ('No Sleep / Pillow') built on Sep 2 2012 15:37:04
Библиотека кодирования : libebml v1.2.3 + libmatroska v1.3.0

Видео
Идентификатор : 1
Формат : AVC
Формат/Информация : Advanced Video Codec
Профиль формата : High@L4.1
Настройки формата : CABAC / 14 Ref Frames
Параметр CABAC формата : Да
Параметр RefFrames формата : 14 кадров
Идентификатор кодека : V_MPEG4/ISO/AVC
Продолжительность : 1 ч. 3 м.
Битрейт : 1819 Кбит/сек
Ширина : 538 пикселей
Высота : 572 пикселя
Соотношение сторон : 1,402
Режим частоты кадров : Постоянный
Частота кадров : 25,000 кадров/сек
Цветовое пространство : YUV
Субдискретизация насыщенности : 4:2:0
Битовая глубина : 8 бит
Тип развёртки : Прогрессивная
Бит/(Пиксели*Кадры) : 0.236
Размер потока : 828 Мбайт (86%)
Библиотека кодирования : x264 core 152 r2851kMod ba24899
Настройки программы : cabac=1 / ref=14 / deblock=1:-2:-2 / analyse=0x3:0x133 / me=umh / subme=10 / psy=1 / fade_compensate=0.00 / psy_rd=1.05:0.10 / mixed_ref=1 / me_range=40 / chroma_me=1 / trellis=2 / 8x8dct=1 / cqm=0 / deadzone=21,11 / fast_pskip=1 / chroma_qp_offset=-3 / threads=18 / lookahead_threads=4 / sliced_threads=0 / nr=0 / decimate=1 / interlaced=0 / bluray_compat=0 / constrained_intra=0 / bframes=11 / b_pyramid=2 / b_adapt=2 / b_bias=0 / direct=1 / weightb=1 / open_gop=0 / weightp=2 / keyint=250 / keyint_min=25 / scenecut=40 / intra_refresh=0 / rc=crf / mbtree=0 / crf=17.5000 / qcomp=0.63 / qpmin=0 / qpmax=30 / qpstep=4 / ip_ratio=1.40 / pb_ratio=1.30 / aq=1:1.00
Язык : English
Default : Да
Forced : Нет
Цветовой диапазон : Limited
Основные цвета : BT.601 PAL
Характеристики трансфера : BT.470 System B/G
Коэффициенты матрицы : BT.470 System B/G

Аудио
Идентификатор : 2
Формат : AC-3
Формат/Информация : Audio Coding 3
Коммерческое название : Dolby Digital
Идентификатор кодека : A_AC3
Продолжительность : 1 ч. 3 м.
Вид битрейта : Постоянный
Битрейт : 256 Кбит/сек
Каналы : 2 канала
ChannelLayout : L R
Частота : 48,0 КГц
Частота кадров : 31,250 кадров/сек (1536 SPF)
Битовая глубина : 16 бит
Метод сжатия : С потерями
Размер потока : 117 Мбайт (12%)
Язык : Russian
ServiceKind/String : Complete Main
Default : Да
Forced : Нет
pb.wtf



Скачать Переходим к любви через торрент https://c.radikal.ru/c04/1909/59/113275b07a62.jpg Скачать фильм Переходим к любви через торрент бесплантно в хорошем качестве Описание: По мотивам одноименного романа Павла Загребельного.Рабочий Дмитрий Череда — известный человек на заводе, о нем пишут в газетах. ... 5 10 1
Info! Золотая раздача, скачанное не засчитывается.
Торрент: Зарегистрирован [2019-09-15 12:24] · скачан: 8 раз
Статус: √ проверено
Размер: 1.75 GB
Как cкачать? Как скачать Переходим к любви через торрент | qTorrent

28-11-2019 20:33  

Отключить всю рекламу на сайте

    Дорогой пользователь! Огромная просьба, поблагодарите релизера, оцените раздачу и оставьте свои комментарий, если Вы скачали Переходим к любви через торрент бесплатно! Внесите свою лепту в развитие PiratBit!
    Комментировать посты могут только пользователи прошедшие не сложную регистрацию
    Показать сообщения:    

    Переходим к любви через торрент
    Скачать бесплатно Переходим к любви
    Переходим к любви скачать торрент
    Переходим к любви смотреть онлайн
    Cкачать фильм Переходим к любви бесплатно
    Переходим к любви скачать торрент в хорошем качестве
    Переходим к любви смотреть онлайн бесплатно в хорошем качестве


    Вы не можете начинать темы
    Вы не можете отвечать на сообщения
    Вы не можете редактировать свои сообщения
    Вы не можете удалять свои сообщения
    Вы не можете голосовать в опросах
    Вы не можете прикреплять файлы к сообщениям
    Вы можете скачивать файлы