новый адрес
Мега распродажа FORZA HORIZON 4 ULTIMATE+ВСЕ DLC+ОНЛАЙН всего за 499р. 349 руб. (супер цена). Внимание количество ограничено!!!

iTunes

1+1

iTunes

мы

iTunes

1

iTunes

Чернобыль

iTunes

Ральф против интернета

Лицензия

ПШазам

Лицензия

Игра престолов

Лицензия

30
pack

ВАЖНО

!!Акция!!

Alien_RageХит недели

RePack

Resident Evil 21

ИГРА 18+

pack

RePack

Metro:Exodus

!!Акция!!

Alien_Rage

RePack

fifa19

RePack

Assassins Creed: Odyssey

RePack

NEED FOR SPEED™ PAYBACK

3 сезон

9 сезон

Бесстыжие 9 сезон

Все сериалы

все сериалы на PB.wtf

RePack

FAR CRY 5
Ребята, катастрофически не хватает 1900р. для оплаты серверов за Октябрь (всвязи с блокировками трафик упал в 3 раза), 1-2р., выручайте.
  

Сотрудник ЧК (Борис Волчек) [1963, Приключения, DVDRip-AVC от KORSAR] pb.wtf

Сотрудник ЧК через торрент pb.wtf

Размер: 2.24 GB | Добавлен: 2 мес. 2 д. назад | Торрент скачан:10 раз
Скачать  

15-09-2019 12:29 Сотрудник ЧК Скачать торрент  

Сотрудник ЧК

Год выпуска: 1963
Жанр: Приключения
Продолжительность: 1:36:43

Режиссер: Борис Волчек
В ролях: Александр Демьяненко, Валентина Малявина, Евгений Евстигнеев, Владимир Кенигсон, Олег Ефремов, Владимир Заманский, Светлана Данильченко, Дмитрий Масанов, Леонид Пархоменко, Владлен Паулус, Ирина Скобцева, Иван Жеваго, Леонид Князев

Описание: В Херсоне только-только установлена советская Влacть, банды и боевые группировки еще вовсю орудуют в городе. Многим хочется поменять Влacть и взять управление портовым городом в свои руки. Сотрудники херсонской ЧК день и ночь ведут борьбу с контрреволюционерами.Среди прочих выделяется Алексей Михалев - молодой чекист-дзержинец. Но не только мужчины ведут неравный поединок с бандитами. На иностранную разведку и различные контргруппировки работают коварные девушки-шпионки, которым успешно противостоят девушки-чекистки...

Релиз от:

Качество: DVDRip-AVC
Формат: MKV

Видео: MPEG-4 AVC, 692x556@738x556, 25 fps, 3052 Кбит/с
Аудио: AC3, 2 ch, 192 Кбит/с
Язык: Русский

  • x264 [info]: frame I:794 Avg QP:17.77 size: 72104
  • x264 [info]: frame P:59800 Avg QP:19.05 size: 27871
  • x264 [info]: frame B:84501 Avg QP:22.32 size: 6350
  • x264 [info]: consecutive B-frames: 19.3% 7.3% 25.8% 22.3% 14.5% 10.7% 0.2% 0.0% 0.0%
Общее
Уникальный идентификатор : 195395622810100677637040277717584974824 (0x92FFD3FE2DDF6CDEA297BFFA9DF813E8)
Полное имя : D:\Сотрудник ЧК_1963-DVDRip-AVC_KORSAR.mkv
Формат : Matroska
Версия формата : Version 2
Размер файла : 2,24 Гбайт
Продолжительность : 1 ч. 36 м.
Общий поток : 3310 Кбит/сек
Название фильма : Сотрудник ЧК_1963-DVDRip-AVC_KORSAR
Дата кодирования : UTC 2019-09-07 11:46:54
Программа кодирования : mkvmerge v5.8.0 ('No Sleep / Pillow') built on Sep 2 2012 15:37:04
Библиотека кодирования : libebml v1.2.3 + libmatroska v1.3.0

Видео
Идентификатор : 1
Формат : AVC
Формат/Информация : Advanced Video Codec
Профиль формата : High@L4.1
Настройки формата : CABAC / 14 Ref Frames
Параметр CABAC формата : Да
Параметр RefFrames формата : 14 кадров
Идентификатор кодека : V_MPEG4/ISO/AVC
Продолжительность : 1 ч. 36 м.
Битрейт : 3052 Кбит/сек
Ширина : 692 пикселя
Высота : 556 пикселей
Соотношение сторон : 4:3
Соотношение сторон в оригинале : 4:3
Режим частоты кадров : Постоянный
Частота кадров : 25,000 кадров/сек
Цветовое пространство : YUV
Субдискретизация насыщенности : 4:2:0
Битовая глубина : 8 бит
Тип развёртки : Прогрессивная
Бит/(Пиксели*Кадры) : 0.317
Размер потока : 2,06 Гбайт (92%)
Библиотека кодирования : x264 core 152 r2851kMod ba24899
Настройки программы : cabac=1 / ref=14 / deblock=1:-2:-1 / analyse=0x3:0x133 / me=umh / subme=10 / psy=1 / fade_compensate=0.00 / psy_rd=1.05:0.10 / mixed_ref=1 / me_range=40 / chroma_me=1 / trellis=2 / 8x8dct=1 / cqm=0 / deadzone=21,11 / fast_pskip=1 / chroma_qp_offset=-3 / threads=17 / lookahead_threads=2 / sliced_threads=0 / nr=0 / decimate=1 / interlaced=0 / bluray_compat=0 / constrained_intra=0 / bframes=8 / b_pyramid=2 / b_adapt=2 / b_bias=0 / direct=1 / weightb=1 / open_gop=0 / weightp=2 / keyint=250 / keyint_min=25 / scenecut=40 / intra_refresh=0 / rc=crf / mbtree=0 / crf=17.6000 / qcomp=0.63 / qpmin=0 / qpmax=30 / qpstep=4 / ip_ratio=1.40 / pb_ratio=1.30 / aq=1:1.00
Язык : English
Default : Да
Forced : Нет
Цветовой диапазон : Limited
Основные цвета : BT.601 PAL
Характеристики трансфера : BT.470 System B/G
Коэффициенты матрицы : BT.470 System B/G

Аудио
Идентификатор : 2
Формат : AC-3
Формат/Информация : Audio Coding 3
Коммерческое название : Dolby Digital
Идентификатор кодека : A_AC3
Продолжительность : 1 ч. 36 м.
Вид битрейта : Постоянный
Битрейт : 192 Кбит/сек
Каналы : 2 канала
ChannelLayout : L R
Частота : 48,0 КГц
Частота кадров : 31,250 кадров/сек (1536 SPF)
Битовая глубина : 16 бит
Метод сжатия : С потерями
Размер потока : 133 Мбайт (6%)
Язык : Russian
ServiceKind/String : Complete Main
Default : Да
Forced : Нет

Меню
00:00:00.000 : en:Chapter 1
00:10:48.960 : en:Chapter 2
00:21:04.800 : en:Chapter 3
00:31:57.920 : en:Chapter 4
00:43:09.000 : en:Chapter 5
00:54:26.360 : en:Chapter 6
01:04:29.880 : en:Chapter 7
01:15:41.760 : en:Chapter 8
01:25:17.360 : en:Chapter 9
pb.wtf



Скачать Сотрудник ЧК через торрент https://a.radikal.ru/a33/1909/ca/883f619599f2.jpg Скачать фильм Сотрудник ЧК через торрент бесплантно в хорошем качестве Описание: В Херсоне только-только установлена советская Влacть, банды и боевые группировки еще вовсю орудуют в городе. Многим хочется ... 9.5 10 2
Info! Серебряная раздача, засчитывается только 50% скачанного.
Торрент: Зарегистрирован [2019-09-15 12:29] · скачан: 10 раз
Статус: √ проверено
Размер: 2.24 GB
Как cкачать? Как скачать Сотрудник ЧК через торрент | qTorrent


>> Регистрируемся здесь <<






Отзывы и комментарии о схеме читаем и пишем здесь: ---> Отзывы и комментарии о схеме

Новые благодарочки в телеграм довольных пользователей:
скриншот   скриншот   скриншот   скриншот   скриншот
    Дорогой пользователь! Огромная просьба, поблагодарите релизера, оцените раздачу и оставьте свои комментарий, если Вы скачали Сотрудник ЧК через торрент бесплатно! Внесите свою лепту в развитие PiratBit!
    Комментировать посты могут только пользователи прошедшие не сложную регистрацию
    Показать сообщения:    

    Сотрудник ЧК через торрент
    Скачать бесплатно Сотрудник ЧК
    Сотрудник ЧК скачать торрент
    Сотрудник ЧК смотреть онлайн
    Cкачать фильм Сотрудник ЧК бесплатно
    Сотрудник ЧК скачать торрент в хорошем качестве
    Сотрудник ЧК смотреть онлайн бесплатно в хорошем качестве


    Вы не можете начинать темы
    Вы не можете отвечать на сообщения
    Вы не можете редактировать свои сообщения
    Вы не можете удалять свои сообщения
    Вы не можете голосовать в опросах
    Вы не можете прикреплять файлы к сообщениям
    Вы можете скачивать файлы