новый адрес
Ссылка на приватное зеркало всего за 1$. Внимание количество ограничено!!!

iTunes

1+1

iTunes

мы

WEB-DL

1

iTunes

Чернобыль

iTunes

Ральф против интернета

Лицензия

ПШазам

Лицензия

Оно 2

Лицензия

30
pack

Вам бонус

ВАЖНО

!!Акция!!

Alien_RageХит недели

RePack

Resident Evil 21

ИГРА 18+

pack

RePack

jed

!!Акция!!

Alien_Rage

RePack

fifa19

RePack

Assassins Creed: Odyssey

RePack

NEED FOR SPEED™ PAYBACK

3 сезон

9 сезон

Бесстыжие 9 сезон

Все сериалы

все сериалы на PB.wtf

RePack

FAR CRY 5
Ребята, катастрофически не хватает 1900р. для оплаты серверов за Октябрь (всвязи с блокировками трафик упал в 3 раза), 1-2р., выручайте.
  

Шляпа (Леонид Квинихидзе) [1981, Комедия, драма, мюзикл, DVDRip-AVC от KORSAR] pb.wtf

Шляпа через торрент pb.wtf

Размер: 1.41 GB | Добавлен: 2 мес. 26 д. назад | Торрент скачан:10 раз
Скачать  

15-09-2019 12:34 Шляпа Скачать торрент  

Шляпа

Год выпуска: 1981
Жанр: Комедия, драма, мюзикл
Продолжительность: 01:26:46
Режиссер: Леонид Квинихидзе
В ролях: Олег Янковский, Людмила Савельева, Игорь Кваша, Наталья Трубникова, Ирина Мирошниченко, Тамара Акулова, Ирина Акулова, Анатолий Солоницын, Семен Фарада, Римма Маркова, Галина Микеладзе

Описание:Герой фильма — популярный композитор и исполнитель джаза. Человек он безусловно одаренный. Однако характер у него… мягко говоря, неудобный. Он живет эмоциями, его мало заботит судьба любящих его людей.
Кому-то покажется, что он по-своему прав; кому-то — что он прошляпил в жизни нечто самое важное. Но так или иначе, одно определенно: Бог помогает ему…

Релиз от:

Качество: DVDRip-AVC
Формат: MKV

Видео: MPEG-4 AVC, 690x390@736x390, 25 fps, 2024 Кбит/с
Аудио: AC3, 2 ch, 256 Кбит/с
Язык: Русский

  • x264 [info]: frame I:809 Avg QP:17.97 size: 51871
  • x264 [info]: frame P:30109 Avg QP:19.72 size: 26019
  • x264 [info]: frame B:99240 Avg QP:21.76 size: 5248
  • x264 [info]: consecutive B-frames: 2.1% 3.3% 10.7% 20.2% 25.9% 34.5% 2.9% 0.4% 0.1%
Общее
Уникальный идентификатор : 246615190674247186276556809645374340272 (0xB9885BA8E795817397F5E6C2FF1C7CB0)
Полное имя : D:\Шляпа_1981-DVDRip-AVC_KORSAR.mkv
Формат : Matroska
Версия формата : Version 2
Размер файла : 1,41 Гбайт
Продолжительность : 1 ч. 26 м.
Общий поток : 2326 Кбит/сек
Название фильма : Шляпа_1981-DVDRip-AVC_KORSAR
Дата кодирования : UTC 2019-09-07 18:02:19
Программа кодирования : mkvmerge v5.8.0 ('No Sleep / Pillow') built on Sep 2 2012 15:37:04
Библиотека кодирования : libebml v1.2.3 + libmatroska v1.3.0

Видео
Идентификатор : 1
Формат : AVC
Формат/Информация : Advanced Video Codec
Профиль формата : High@L4.1
Настройки формата : CABAC / 15 Ref Frames
Параметр CABAC формата : Да
Параметр RefFrames формата : 15 кадров
Идентификатор кодека : V_MPEG4/ISO/AVC
Продолжительность : 1 ч. 26 м.
Битрейт : 2024 Кбит/сек
Ширина : 690 пикселей
Высота : 390 пикселей
Соотношение сторон : 1,887
Режим частоты кадров : Постоянный
Частота кадров : 25,000 кадров/сек
Цветовое пространство : YUV
Субдискретизация насыщенности : 4:2:0
Битовая глубина : 8 бит
Тип развёртки : Прогрессивная
Бит/(Пиксели*Кадры) : 0.301
Размер потока : 1,23 Гбайт (87%)
Библиотека кодирования : x264 core 152 r2851kMod ba24899
Настройки программы : cabac=1 / ref=15 / deblock=1:-2:-1 / analyse=0x3:0x133 / me=umh / subme=10 / psy=1 / fade_compensate=0.00 / psy_rd=1.05:0.10 / mixed_ref=1 / me_range=40 / chroma_me=1 / trellis=2 / 8x8dct=1 / cqm=0 / deadzone=21,11 / fast_pskip=1 / chroma_qp_offset=-3 / threads=12 / lookahead_threads=2 / sliced_threads=0 / nr=0 / decimate=1 / interlaced=0 / bluray_compat=0 / constrained_intra=0 / bframes=8 / b_pyramid=2 / b_adapt=2 / b_bias=0 / direct=1 / weightb=1 / open_gop=0 / weightp=2 / keyint=250 / keyint_min=25 / scenecut=40 / intra_refresh=0 / rc=crf / mbtree=0 / crf=17.9000 / qcomp=0.63 / qpmin=0 / qpmax=30 / qpstep=4 / ip_ratio=1.40 / pb_ratio=1.30 / aq=1:0.80
Язык : English
Default : Да
Forced : Нет
Цветовой диапазон : Limited
Основные цвета : BT.601 PAL
Характеристики трансфера : BT.470 System B/G
Коэффициенты матрицы : BT.470 System B/G

Аудио
Идентификатор : 2
Формат : AC-3
Формат/Информация : Audio Coding 3
Коммерческое название : Dolby Digital
Идентификатор кодека : A_AC3
Продолжительность : 1 ч. 26 м.
Вид битрейта : Постоянный
Битрейт : 256 Кбит/сек
Каналы : 2 канала
ChannelLayout : L R
Частота : 48,0 КГц
Частота кадров : 31,250 кадров/сек (1536 SPF)
Битовая глубина : 16 бит
Метод сжатия : С потерями
Размер потока : 159 Мбайт (11%)
Язык : Russian
ServiceKind/String : Complete Main
Default : Да
Forced : Нет

Меню
00:00:00.000 : en:Chapter 1
00:10:09.600 : en:Chapter 2
00:17:23.040 : en:Chapter 3
00:22:32.160 : en:Chapter 4
00:32:11.520 : en:Chapter 5
00:36:40.320 : en:Chapter 6
00:42:21.600 : en:Chapter 7
00:48:01.440 : en:Chapter 8
00:51:20.160 : en:Chapter 9
00:56:45.120 : en:Chapter 10
01:01:15.360 : en:Chapter 11
01:04:25.440 : en:Chapter 12
01:08:22.560 : en:Chapter 13
01:13:18.720 : en:Chapter 14
01:20:35.040 : en:Chapter 15
pb.wtf



Скачать Шляпа через торрент https://d.radikal.ru/d41/1909/c5/5411c9a7dadd.jpg Скачать фильм Шляпа через торрент бесплантно в хорошем качестве Описание:Герой фильма — популярный композитор и исполнитель джаза. Человек он безусловно одаренный. Однако характер у него… мягко говоря, ... 5 10 1
Торрент: Зарегистрирован [2019-09-15 12:34] · скачан: 10 раз
Статус: √ проверено
Размер: 1.41 GB
Как cкачать? Как скачать Шляпа через торрент | qTorrent

% Раздел Тема Автор DL S | L
Фантастика [ 257 MB ] Терри Пратчетт - Плоский мир. Ринсвинд Коэн и волшебники 3. Посох и шляпа [Клюквин Александр 2017 56 kbps MP3] bober100 Скачать
1 | 0
Рок, Панк, Альтернатива (mp3) [ 103 MB ] The Hatters - Полная шляпа 2017 / MP3 / 320 kbps / Рок oleg8 Скачать
2 | 0
Развлекательные телепередачи и шоу, приколы и юмор [ 951 MB ] Уральские Пельмени. Все лето в шляпе [2015 Юмор ТВ-Шоу SATRip Оригинальный] Serejechka Скачать
1 | 0
Сцены из фильмов и Сайтрипы с русскими актрисами [ 200 MB ] Сисястая Любка и дядя с длинной шляпой... [2014 Teen all sex oral big boobs facial. SATRip] Magnat Скачать
1 | 0
Гонзо [ 2.39 GB ] Жопо-Шапки / Ass Hats [2014 Anal Face Sitting Gaping Gonzo. WEB-DLRip 540р.] Pir@tya2010 Скачать
1 | 0
Наши мультфильмы [ 247 MB ] Муми-дол: Все дело в шляпе / 1980 / DVDRip [1980 Мультфильм DVDRip] Aleg333ator Скачать
1 | 0
Наши фильмы, до 2010 [ 1.44 GB ] О'Кей / О'Кей или Дело в шляпе [2002 SATRip] -=Cherry=- Скачать
1 | 0

28-11-2019 20:33  

Отключить всю рекламу на сайте

    Дорогой пользователь! Огромная просьба, поблагодарите релизера, оцените раздачу и оставьте свои комментарий, если Вы скачали Шляпа через торрент бесплатно! Внесите свою лепту в развитие PiratBit!
    Комментировать посты могут только пользователи прошедшие не сложную регистрацию
    Показать сообщения:    

    Шляпа через торрент
    Скачать бесплатно Шляпа
    Шляпа скачать торрент
    Шляпа смотреть онлайн
    Cкачать фильм Шляпа бесплатно
    Шляпа скачать торрент в хорошем качестве
    Шляпа смотреть онлайн бесплатно в хорошем качестве


    Вы не можете начинать темы
    Вы не можете отвечать на сообщения
    Вы не можете редактировать свои сообщения
    Вы не можете удалять свои сообщения
    Вы не можете голосовать в опросах
    Вы не можете прикреплять файлы к сообщениям
    Вы можете скачивать файлы