новый адрес пиратбит piratbit
Мега распродажа FORZA HORIZON 4 ULTIMATE+ВСЕ DLC+ОНЛАЙН всего за 499р. 349 руб. (супер цена). Внимание количество ограничено!!!

iTunes

1+1

iTunes

мы

iTunes

1

iTunes

Чернобыль

iTunes

Ральф против интернета

Лицензия

ПШазам

Лицензия

Игра престолов

Лицензия

30
pack

ВАЖНО

!!Акция!!

Alien_RageХит недели

RePack

Resident Evil 21

ИГРА 18+

pack

RePack

Metro:Exodus

!!Акция!!

Alien_Rage

RePack

fifa19

RePack

Assassins Creed: Odyssey

RePack

NEED FOR SPEED™ PAYBACK

3 сезон

9 сезон

Бесстыжие 9 сезон

Все сериалы

все сериалы на PB.wtf

RePack

FAR CRY 5
Ребята, катастрофически не хватает 1900р. для оплаты серверов за Октябрь (всвязи с блокировками трафик упал в 3 раза), 1-2р., выручайте.
  

Это мы не проходили (Илья Фрэз) [1975, Лирическая комедия, SATRip-AVC от KORSAR] pb.wtf

Это мы не проходили через торрент pb.wtf

Размер: 1.78 GB | Добавлен: 2 мес. назад | Торрент скачан:8 раз
Скачать  

15-09-2019 12:40 Это мы не проходили Скачать торрент  

Это мы не проходили...

Год выпуска: 1975
Жанр: Лирическая Комедия
Продолжительность: 01:33:49
Режиссер: Илья ФРЭЗ
В ролях: Наталья Рычагова, Борис Токарев, Татьяна Канаева, Андрей Ростоцкий, Ирина Калиновская, Антонина Максимова, Татьяна Пельтцер, Роман Ткачук, Наталья Защипина, Раиса Рязанова, Вера Орлова, Евгений Весник, Люсьена Овчинникова, Вера Васильева

Описание: Только что закончившие педагогический вуз студенты отправляются на практику. Им предстоит впервые без помощи и поддержки своих преподавателей применить свои знания и осознать, насколько реальная жизнь отличается от той, что описана в учебниках. Молодые педагоги будут обучать настоящих школьников, зачастую не вписывающихся в общие рамки студенческих дисциплин. Такая школа жизни позволит им проверить свои способности и силу желания стать настоящим педагогом для детей. Смогут ли они стать не просто примером, но направляющей силой для юного поколения? Или же сдадутся при первой же трудности, ответив всем «это мы не проходили»?

Релиз от:

Качество: SATRip-AVC
Формат: MKV

Видео: MPEG-4 AVC, 706x366@754x366, 25 fps, 22478 Кбит/с
Аудио: AC3, 2 ch, 192 Кбит/с
Язык: Русский

  • 264 [info]: frame I:754 Avg QP:18.19 size: 61548
  • x264 [info]: frame P:35993 Avg QP:19.69 size: 30985
  • x264 [info]: frame B:103921 Avg QP:22.04 size: 5951
  • x264 [info]: consecutive B-frames: 2.1% 6.2% 16.1% 28.6% 19.7% 24.8% 1.8% 0.5% 0.1% 0.0%
Общее
Уникальный идентификатор : 249082292576413068847348429209741869444 (0xBB63812CBDDDD1F69A81E6D6DF64C184)
Полное имя : D:\Это мы не проходили_1975-SATRip-AVC_KORSAR.mkv
Формат : Matroska
Версия формата : Version 2
Размер файла : 1,78 Гбайт
Продолжительность : 1 ч. 33 м.
Общий поток : 2725 Кбит/сек
Название фильма : Это мы не проходили_1975-SATRip-AVC_KORSAR
Дата кодирования : UTC 2019-09-08 14:18:28
Программа кодирования : mkvmerge v5.8.0 ('No Sleep / Pillow') built on Sep 2 2012 15:37:04
Библиотека кодирования : libebml v1.2.3 + libmatroska v1.3.0

Видео
Идентификатор : 1
Формат : AVC
Формат/Информация : Advanced Video Codec
Профиль формата : High@L4.1
Настройки формата : CABAC / 14 Ref Frames
Параметр CABAC формата : Да
Параметр RefFrames формата : 14 кадров
Идентификатор кодека : V_MPEG4/ISO/AVC
Продолжительность : 1 ч. 33 м.
Битрейт : 2478 Кбит/сек
Ширина : 706 пикселей
Высота : 366 пикселей
Соотношение сторон : 2,060
Соотношение сторон в оригинале : 2,058
Режим частоты кадров : Постоянный
Частота кадров : 25,000 кадров/сек
Цветовое пространство : YUV
Субдискретизация насыщенности : 4:2:0
Битовая глубина : 8 бит
Тип развёртки : Прогрессивная
Бит/(Пиксели*Кадры) : 0.384
Размер потока : 1,62 Гбайт (91%)
Библиотека кодирования : x264 core 152 r2851kMod ba24899
Настройки программы : cabac=1 / ref=14 / deblock=1:-2:-2 / analyse=0x3:0x133 / me=umh / subme=10 / psy=1 / fade_compensate=0.00 / psy_rd=1.05:0.10 / mixed_ref=1 / me_range=40 / chroma_me=1 / trellis=2 / 8x8dct=1 / cqm=0 / deadzone=21,11 / fast_pskip=1 / chroma_qp_offset=-3 / threads=11 / lookahead_threads=1 / sliced_threads=0 / nr=0 / decimate=1 / interlaced=0 / bluray_compat=0 / constrained_intra=0 / bframes=9 / b_pyramid=2 / b_adapt=2 / b_bias=0 / direct=1 / weightb=1 / open_gop=0 / weightp=2 / keyint=250 / keyint_min=25 / scenecut=40 / intra_refresh=0 / rc=crf / mbtree=0 / crf=17.0000 / qcomp=0.63 / qpmin=0 / qpmax=30 / qpstep=4 / ip_ratio=1.40 / pb_ratio=1.30 / aq=1:1.00
Язык : English
Default : Да
Forced : Нет
Цветовой диапазон : Limited
Основные цвета : BT.601 PAL
Характеристики трансфера : BT.470 System B/G
Коэффициенты матрицы : BT.470 System B/G

Аудио
Идентификатор : 2
Формат : AC-3
Формат/Информация : Audio Coding 3
Коммерческое название : Dolby Digital
Идентификатор кодека : A_AC3
Продолжительность : 1 ч. 33 м.
Вид битрейта : Постоянный
Битрейт : 192 Кбит/сек
Каналы : 2 канала
ChannelLayout : L R
Частота : 48,0 КГц
Частота кадров : 31,250 кадров/сек (1536 SPF)
Битовая глубина : 16 бит
Метод сжатия : С потерями
Размер потока : 129 Мбайт (7%)
Язык : Russian
ServiceKind/String : Complete Main
Default : Да
Forced : Нет
pb.wtf



Скачать Это мы не проходили через торрент http://i63.fastpic.ru/big/2014/0831/e0/b824820b727d96c644d6ae8a091bf3e0.png Скачать фильм Это мы не проходили через торрент бесплантно в хорошем качестве Описание: Только что закончившие педагогический вуз студенты отправляются на практику. Им предстоит впервые без помощи и поддержки своих ... 5 10 1
Info! Золотая раздача, скачанное не засчитывается.
Торрент: Зарегистрирован [2019-09-15 12:40] · скачан: 8 раз
Статус: √ проверено
Размер: 1.78 GB
Как cкачать? Как скачать Это мы не проходили через торрент | qTorrent


>> Регистрируемся здесь <<






Отзывы и комментарии о схеме читаем и пишем здесь: ---> Отзывы и комментарии о схеме

Новые благодарочки в телеграм довольных пользователей:
скриншот   скриншот   скриншот   скриншот   скриншот
    Дорогой пользователь! Огромная просьба, поблагодарите релизера, оцените раздачу и оставьте свои комментарий, если Вы скачали Это мы не проходили через торрент бесплатно! Внесите свою лепту в развитие PiratBit!
    Комментировать посты могут только пользователи прошедшие не сложную регистрацию
    Показать сообщения:    

    Это мы не проходили через торрент
    Скачать бесплатно Это мы не проходили
    Это мы не проходили скачать торрент
    Это мы не проходили смотреть онлайн
    Cкачать фильм Это мы не проходили бесплатно
    Это мы не проходили скачать торрент в хорошем качестве
    Это мы не проходили смотреть онлайн бесплатно в хорошем качестве


    Вы не можете начинать темы
    Вы не можете отвечать на сообщения
    Вы не можете редактировать свои сообщения
    Вы не можете удалять свои сообщения
    Вы не можете голосовать в опросах
    Вы не можете прикреплять файлы к сообщениям
    Вы можете скачивать файлы