Ссылка на приватное зеркало нашего сайта всего за 1$. Внимание количество ограничено!!!

2 сезон

iTunes

1 сезон

1

2 сезон

2 сезон

iTunes

1 сезон

RePack

30

Новинка

ВАЖНО

ИГРА 18+

pack

RePack

MK11
pack

Забери бонус

RePack

jed

!!Акция!!

Alien_Rage

RePack

fifa19

RePack

Assassins Creed: Odyssey

RePack

NEED FOR SPEED™ PAYBACK

4 сезон

9 сезон

Бесстыжие 9 сезон

Все сериалы

все сериалы на PB.wtf

RePack

FAR CRY 5
  

Ожидание / They Wait (Эрни Барбараш) [2007, Ужасы, триллер, детектив, WEB-DL 1080p] [AMZN] MVO [Лицензия R5] pb.wtf

Ожидание через торрент pb.wtf

Размер: 6.18 GB | Добавлен: 1 год 2 мес. назад | Торрент скачан:27 раз
Скачать  

15-09-2019 14:32 Ожидание Скачать торрент  

Ожидание / They Wait
Год выпуска: 2007
Страна: Канада
Жанр: Ужасы, триллер, детектив
Продолжительность: 01:24:55
Перевод: Профессиональный (многоголосый) | Лицензия R5
Субтитры: русские, английские

Режиссер: Эрни Барбараш

rating

В ролях: Джейми Кинг, Терри Чен, Пеи-пеи Ченг, Генри О, Колин Фу, Чанг Тсенг, Майкл Бин, Викки Хуан, Дональд Фонг, Уолли Хоун, Стефен Чанг, Донни Лукас, Сюзанн Бастьен, Эрика Конуэй, Джозеф Мэй, Мэгги Ма

Описание: Молодая мать и ее шестилетний сын сталкиваются лицом к лицу с тайной двух убийств и ужасным преступлением против китайской общины, в которую они попали по приезду из Шанхая..

Качество: WEB-DL 1080p | AMZN
Формат: MKV

Видео: MPEG-4 AVC, 10 Mбит/с, 1920x1080, 25.000 кадр/с
Аудио#1: Русский (АС3, 6 ch, 448 Кбит/с, 48.0 KHz) Профессиональный (многоголосый, закадровый) R5
Аудио#2: Английский (АС3, 6 ch, 448 Кбит/с, 48.0 KHz)
скриншот  скриншот  скриншот  скриншот  скриншот  

скриншот  скриншот  скриншот  скриншот  скриншот  

Источник: They.Wait.2007.1080p.AMZN.WEB-DL.DDP2.0.H.264-NTG
General
Unique ID : 249715635460559582253904488788213363045 (0xBBDD7B63CBCE3BFF9BFC0B05795BF165)
Complete name : They.Wait.2007.AMZN.WEB-DL.1080p.mkv
Format : Matroska
Format version : Version 4
File size : 6.18 GiB
Duration : 1 h 24 min
Overall bit rate : 10.4 Mb/s
Encoded date : UTC 2019-09-10 21:53:19
Writing application : mkvmerge v7.1.0 ('Good Love') 64bit built on Jul 27 2014 13:06:55
Writing library : libebml v1.3.0 + libmatroska v1.4.1

Video
ID : 1
Format : AVC
Format/Info : Advanced Video Codec
Format profile : High@L4
Format settings : CABAC / 4 Ref Frames
Format settings, CABAC : Yes
Format settings, Reference fra : 4 frames
Codec ID : V_MPEG4/ISO/AVC
Duration : 1 h 24 min
Bit rate mode : Constant
Bit rate : 10 000 kb/s
Width : 1 920 pixels
Height : 1 080 pixels
Display aspect ratio : 16:9
Frame rate mode : Constant
Frame rate : 25.000 FPS
Color space : YUV
Chroma subsampling : 4:2:0
Bit depth : 8 bits
Scan type : Progressive
Bits/(Pixel*Frame) : 0.193
Stream size : 5.65 GiB (91%)
Language : English
Default : Yes
Forced : No
Color range : Limited
Color primaries : BT.709
Transfer characteristics : BT.709
Matrix coefficients : BT.709

Audio #1
ID : 2
Format : AC-3
Format/Info : Audio Coding 3
Commercial name : Dolby Digital
Codec ID : A_AC3
Duration : 1 h 24 min
Bit rate mode : Constant
Bit rate : 448 kb/s
Channel(s) : 6 channels
Channel layout : L R C LFE Ls Rs
Sampling rate : 48.0 kHz
Frame rate : 31.250 FPS (1536 SPF)
Bit depth : 16 bits
Compression mode : Lossy
Stream size : 272 MiB (4%)
Language : Russian
Service kind : Complete Main
Default : Yes
Forced : No

Audio #2
ID : 3
Format : AC-3
Format/Info : Audio Coding 3
Commercial name : Dolby Digital
Codec ID : A_AC3
Duration : 1 h 24 min
Bit rate mode : Constant
Bit rate : 448 kb/s
Channel(s) : 6 channels
Channel layout : L R C LFE Ls Rs
Sampling rate : 48.0 kHz
Frame rate : 31.250 FPS (1536 SPF)
Bit depth : 16 bits
Compression mode : Lossy
Stream size : 272 MiB (4%)
Language : English
Service kind : Complete Main
Default : No
Forced : No

Text #1
ID : 4
Format : UTF-8
Codec ID : S_TEXT/UTF8
Codec ID/Info : UTF-8 Plain Text
Duration : 1 h 18 min
Bit rate : 70 b/s
Count of elements : 720
Stream size : 40.6 KiB (0%)
Language : Russian
Default : No
Forced : No

Text #2
ID : 5
Format : UTF-8
Codec ID : S_TEXT/UTF8
Codec ID/Info : UTF-8 Plain Text
Duration : 1 h 21 min
Bit rate : 40 b/s
Count of elements : 861
Stream size : 24.0 KiB (0%)
Language : English
Default : No
Forced : No

Menu
00:00:00.000 : en:Chapter 00
00:04:30.895 : en:Chapter 01
00:12:20.906 : en:Chapter 02
00:19:03.267 : en:Chapter 03
00:24:32.220 : en:Chapter 04
00:28:49.602 : en:Chapter 05
00:32:59.477 : en:Chapter 06
00:35:58.156 : en:Chapter 07
00:42:31.632 : en:Chapter 08
00:49:42.521 : en:Chapter 09
00:52:04.162 : en:Chapter 10
00:58:19.829 : en:Chapter 11
01:04:16.394 : en:Chapter 12
01:10:04.450 : en:Chapter 13
01:15:42.788 : en:Chapter 14
01:20:10.222 : en:Chapter 15

pb.wtf



Скачать Ожидание через торрент http://c.radikal.ru/c34/1909/36/20e06e2635ac.jpg Скачать фильм Ожидание через торрент бесплантно в хорошем качестве Описание: Молодая мать и ее шестилетний сын сталкиваются лицом к лицу с тайной двух убийств и ужасным преступлением против китайской ... 9.3 10 6
Торрент: Зарегистрирован [2019-09-15 14:32] · скачан: 27 раз
Статус: √ проверено
Размер: 6.18 GB
Как cкачать? Как скачать Ожидание через торрент | qTorrent

28-11-2019 20:33  

Отключить всю рекламу на сайте

    Дорогой пользователь! Огромная просьба, поблагодарите релизера, оцените раздачу и оставьте свои комментарий, если Вы скачали Ожидание через торрент бесплатно! Внесите свою лепту в развитие PiratBit!
    Комментировать посты могут только пользователи прошедшие не сложную регистрацию
    Показать сообщения:    

    Ожидание через торрент
    Скачать бесплатно Ожидание
    Ожидание скачать торрент
    Ожидание смотреть онлайн
    Cкачать фильм Ожидание бесплатно
    Ожидание скачать торрент в хорошем качестве
    Ожидание смотреть онлайн бесплатно в хорошем качестве


    Вы не можете начинать темы
    Вы не можете отвечать на сообщения
    Вы не можете редактировать свои сообщения
    Вы не можете удалять свои сообщения
    Вы не можете голосовать в опросах
    Вы не можете прикреплять файлы к сообщениям
    Вы можете скачивать файлы