Ссылка на приватное зеркало нашего сайта всего за 1$. Внимание количество ограничено!!!

2 сезон

iTunes

1 сезон

1

2 сезон

2 сезон

iTunes

1 сезон

RePack

30

Ultimate

ВАЖНО

ИГРА 18+

pack

RePack

MK11
pack

Забери бонус

RePack

jed

!!Акция!!

Alien_Rage

RePack

fifa19

RePack

Assassins Creed: Odyssey

RePack

NEED FOR SPEED™ PAYBACK

4 сезон

9 сезон

Бесстыжие 9 сезон

Все сериалы

все сериалы на PB.wtf

RePack

FAR CRY 5
  

Visions Of Atlantis - Wanderers - 2019/ FLAC/ image +.cue/ lossless/ Melodic/ Symphonic Power Metal pb.wtf

Visions Of Atlantis - Wanderers - 2019 через торрент pb.wtf

Размер: 440 MB | Добавлен: 1 год 2 мес. назад | Торрент скачан:4 раза
Скачать  

15-09-2019 18:37 Visions Of Atlantis - Wanderers - 2019 Скачать торрент  


Visions Of Atlantis - Wanderers


Год издания: 2019
Страна: Austria
Жанр: Melodic/ Symphonic Power Metal
Продолжительность: 00:55:43
Лейбл издания: Napalm Records Handels GmbH
Страна-выпуска диска: Germany
Номер по каталогу: NPR 819 DP
Формат: FLAC
Битрейт аудио: Lossless
Тип рипа: image +.cue
Наличие сканов в содержимом раздачи: да


01. Release My Symphony (7:04)
02. Heroes Of The Dawn (4:32)
03. Nothing Lasts Forever (3:42)
04. A Journey To Remember (4:06)
05. A Life Of Our Own (4:32)
06. To The Universe (4:11)
07. Into The Light (4:30)
08. The Silent Scream (4:00)
09. The Siren & The Sailor (4:42)
10. Wanderers (3:32)
11. At The End Of The World (3:36)
12. Bring The Storm (4:23)
13. In And Out Of Love (2:53)

Код:

Exact Audio Copy V1.3 from 2. September 2016

EAC extraction logfile from 13. September 2019, 21:41

Visions Of Atlantis / Wanderers

Used drive  : ASUS    DRW-24B3ST   Adapter: 2  ID: 0

Read mode               : Secure
Utilize accurate stream : Yes
Defeat audio cache      : Yes
Make use of C2 pointers : No

Read offset correction                      : 6
Overread into Lead-In and Lead-Out          : No
Fill up missing offset samples with silence : Yes
Delete leading and trailing silent blocks   : No
Null samples used in CRC calculations       : Yes
Used interface                              : Installed external ASPI interface

Used output format              : User Defined Encoder
Selected bitrate                : 1024 kBit/s
Quality                         : High
Add ID3 tag                     : No
Command line compressor         : C:\Program Files (x86)\Exact Audio Copy\FLAC\FLAC.EXE
Additional command line options : -V -8 -T "Date=%year%" -T "Genre=%genre%" -T -8 -V %source%

TOC of the extracted CD

     Track |   Start  |  Length  | Start sector | End sector
    ---------------------------------------------------------
        1  |  0:00.00 |  7:04.31 |         0    |    31830
        2  |  7:04.31 |  4:31.41 |     31831    |    52196
        3  | 11:35.72 |  3:42.08 |     52197    |    68854
        4  | 15:18.05 |  4:06.07 |     68855    |    87311
        5  | 19:24.12 |  4:31.70 |     87312    |   107706
        6  | 23:56.07 |  4:11.24 |    107707    |   126555
        7  | 28:07.31 |  4:29.38 |    126556    |   146768
        8  | 32:36.69 |  3:59.50 |    146769    |   164743
        9  | 36:36.44 |  4:42.12 |    164744    |   185905
       10  | 41:18.56 |  3:32.04 |    185906    |   201809
       11  | 44:50.60 |  3:36.19 |    201810    |   218028
       12  | 48:27.04 |  4:23.17 |    218029    |   237770
       13  | 52:50.21 |  2:53.04 |    237771    |   250749

Range status and errors

Selected range

     Filename C:\ Visions Of Atlantis - Wanderers.wav

     Peak level 100.0 %
     Extraction speed 6.2 X
     Range quality 100.0 %
     Test CRC 2780BBB9
     Copy CRC 2780BBB9
     Copy OK

No errors occurred

AccurateRip summary

Track  1  not present in database
Track  2  not present in database
Track  3  not present in database
Track  4  not present in database
Track  5  not present in database
Track  6  not present in database
Track  7  not present in database
Track  8  not present in database
Track  9  not present in database
Track 10  not present in database
Track 11  not present in database
Track 12  not present in database
Track 13  not present in database

None of the tracks are present in the AccurateRip database

End of status report

Код:

REM GENRE "Symphonic Power Metal"
REM DATE 2019
REM DISCID D20D0F0D
REM COMMENT "ExactAudioCopy v1.3"
PERFORMER "Visions Of Atlantis"
TITLE "Wanderers"
REM COMPOSER "Visions Of Atlantis"
FILE "Visions Of Atlantis - Wanderers.flac" WAVE
  TRACK 01 AUDIO
    TITLE "Release My Symphony"
    PERFORMER "Visions Of Atlantis"
    REM COMPOSER "Visions Of Atlantis"
    ISRC ATN261981901
    INDEX 01 00:00:00
  TRACK 02 AUDIO
    TITLE "Heroes Of The Dawn"
    PERFORMER "Visions Of Atlantis"
    REM COMPOSER "Visions Of Atlantis"
    ISRC ATN261981902
    INDEX 01 07:04:31
  TRACK 03 AUDIO
    TITLE "Nothing Lasts Forever"
    PERFORMER "Visions Of Atlantis"
    REM COMPOSER "Visions Of Atlantis"
    ISRC ATN261981903
    INDEX 01 11:35:72
  TRACK 04 AUDIO
    TITLE "A Journey To Remember"
    PERFORMER "Visions Of Atlantis"
    REM COMPOSER "Visions Of Atlantis"
    ISRC ATN261981904
    INDEX 01 15:18:05
  TRACK 05 AUDIO
    TITLE "A Life Of Our Own"
    PERFORMER "Visions Of Atlantis"
    REM COMPOSER "Visions Of Atlantis"
    ISRC ATN261981905
    INDEX 01 19:24:12
  TRACK 06 AUDIO
    TITLE "To The Universe"
    PERFORMER "Visions Of Atlantis"
    REM COMPOSER "Visions Of Atlantis"
    ISRC ATN261981906
    INDEX 01 23:56:07
  TRACK 07 AUDIO
    TITLE "Into The Light"
    PERFORMER "Visions Of Atlantis"
    REM COMPOSER "Visions Of Atlantis"
    ISRC ATN261981907
    INDEX 01 28:07:31
  TRACK 08 AUDIO
    TITLE "The Silent Scream"
    PERFORMER "Visions Of Atlantis"
    REM COMPOSER "Visions Of Atlantis"
    ISRC ATN261981908
    INDEX 01 32:36:69
  TRACK 09 AUDIO
    TITLE "The Siren & The Sailor"
    PERFORMER "Visions Of Atlantis"
    REM COMPOSER "Visions Of Atlantis"
    ISRC ATN261981909
    INDEX 01 36:36:44
  TRACK 10 AUDIO
    TITLE "Wanderers"
    PERFORMER "Visions Of Atlantis"
    REM COMPOSER "Visions Of Atlantis"
    ISRC ATN261981910
    INDEX 01 41:18:56
  TRACK 11 AUDIO
    TITLE "At The End Of The World"
    PERFORMER "Visions Of Atlantis"
    REM COMPOSER "Visions Of Atlantis"
    ISRC ATN261981911
    INDEX 01 44:50:60
  TRACK 12 AUDIO
    TITLE "Bring The Storm"
    PERFORMER "Visions Of Atlantis"
    REM COMPOSER "Visions Of Atlantis"
    ISRC ATN261981912
    INDEX 01 48:27:04
  TRACK 13 AUDIO
    TITLE "In And Out Of Love"
    PERFORMER "Visions Of Atlantis"
    REM COMPOSER "Visions Of Atlantis"
    ISRC ATN261981913
    INDEX 01 52:50:21








pb.wtf



Скачать Visions Of Atlantis - Wanderers - 2019 через торрент https://i87.fastpic.ru/big/2019/0915/d1/0c1304f6ebf5484cf50429745d0a99d1.png Скачать фильм Visions Of Atlantis - Wanderers - 2019через торрент бесплантно в хорошем качестве Трэклист Release My Symphony (7:04) Heroes Of The Dawn (4:32) Nothing Lasts Forever (3:42) A Journey To Remember ... 5 10 1
Торрент: Зарегистрирован [2019-09-15 18:37] · скачан: 4 раз
Статус: √ проверено
Размер: 440 MB
Как cкачать? Как скачать Visions Of Atlantis - Wanderers - 2019 через торрент | qTorrent

28-11-2019 20:33  

Отключить всю рекламу на сайте

    Дорогой пользователь! Огромная просьба, поблагодарите релизера, оцените раздачу и оставьте свои комментарий, если Вы скачали Visions Of Atlantis - Wanderers - 2019 через торрент бесплатно! Внесите свою лепту в развитие PiratBit!
    Комментировать посты могут только пользователи прошедшие не сложную регистрацию
    Показать сообщения:    

    Visions Of Atlantis - Wanderers - 2019 через торрент
    Скачать бесплатно Visions Of Atlantis - Wanderers - 2019
    Visions Of Atlantis - Wanderers - 2019 скачать торрент
    Visions Of Atlantis - Wanderers - 2019 смотреть онлайн
    Cкачать фильм Visions Of Atlantis - Wanderers - 2019 бесплатно
    Visions Of Atlantis - Wanderers - 2019 скачать торрент в хорошем качестве
    Visions Of Atlantis - Wanderers - 2019 смотреть онлайн бесплатно в хорошем качестве


    Вы не можете начинать темы
    Вы не можете отвечать на сообщения
    Вы не можете редактировать свои сообщения
    Вы не можете удалять свои сообщения
    Вы не можете голосовать в опросах
    Вы не можете прикреплять файлы к сообщениям
    Вы можете скачивать файлы