Ссылка на приватное зеркало нашего сайта всего за 1$. Внимание количество ограничено!!!

2 сезон

iTunes

1 сезон

1

2 сезон

2 сезон

iTunes

1 сезон

RePack

30

Новинка

ВАЖНО

ИГРА 18+

pack

RePack

MK11
pack

Забери бонус

RePack

jed

!!Акция!!

Alien_Rage

RePack

fifa19

RePack

Assassins Creed: Odyssey

RePack

NEED FOR SPEED™ PAYBACK

4 сезон

9 сезон

Бесстыжие 9 сезон

Все сериалы

все сериалы на PB.wtf

RePack

FAR CRY 5
  

Дылда / Tall Girl (Зинга Стюарт) [2019, Комедия, WEBRip 720p] DUB [Пифагор] pb.wtf

Дылда через торрент pb.wtf

Размер: 2.47 GB | Добавлен: 1 год 2 мес. назад | Торрент скачан:91 раз
Скачать  

15-09-2019 19:20 Дылда Скачать торрент  

Дылда / Tall Girl
Год выпуска: 2019
Страна: США
Жанр: Комедия
Продолжительность: 01:42:41
Перевод: Дублированный | Пифагор по заказу Netflix
Субтитры: Русские (Forced, Full), английские, испанские, французские, немецкие, итальянские | Нетфликс

Режиссер: Зинга Стюарт

rating

В ролях: Ава Мишель, Сабрина Карпентер, Анджела Кинси, Пэрис Берелс, Люк Эйснер, Стив Зан, Гриффин Глюк, Кэнди Брукс, Эми Ле, Conway Solomon и др.

Описание: Джоди, самая высокая девушка в школе, всегда чувствовала себя неловко в собственной шкуре. Но после многих лет насмешек и избегания внимания любой ценой, Джоди, наконец, решает обрести уверенность в себе.

Качество: WEBRip 720p
Формат: MKV

Видео: MPEG-4 AVC, 2351 Kбит/с, 1280x544, 23.976 кадр/с
Аудио#1: Русский (АС3, 6 ch, 448 Кбит/с, 48.0 KHz) Профессиональный (полное дублирование) Пифагор
Аудио#2: Английский (E-АС3, 6 ch, 640 Кбит/с, 48.0 KHz)
скриншот  скриншот  скриншот  скриншот  скриншот  

Источник: Tall.Girl.2019.720p.NF.WEBRip.DDP5.1.x264-PALEALE
General
Unique ID : 179106181760096301385577925806249522085 (0x86BE988AC87E5EFAB43EF92B538CB3A5)
Complete name : Tall.Girl.2019.NF.WEBRip.720p.mkv
Format : Matroska
Format version : Version 4
File size : 2.47 GiB
Duration : 1 h 42 min
Overall bit rate : 3 442 kb/s
Encoded date : UTC 2019-09-15 17:38:40
Writing application : mkvmerge v7.1.0 ('Good Love') 64bit built on Jul 27 2014 13:06:55
Writing library : libebml v1.3.0 + libmatroska v1.4.1

Video
ID : 1
Format : AVC
Format/Info : Advanced Video Codec
Format profile : High@L4.1
Format settings : CABAC / 5 Ref Frames
Format settings, CABAC : Yes
Format settings, Reference fra : 5 frames
Codec ID : V_MPEG4/ISO/AVC
Duration : 1 h 42 min
Bit rate : 2 351 kb/s
Width : 1 280 pixels
Height : 544 pixels
Display aspect ratio : 2.35:1
Frame rate mode : Constant
Frame rate : 23.976 FPS
Color space : YUV
Chroma subsampling : 4:2:0
Bit depth : 8 bits
Scan type : Progressive
Bits/(Pixel*Frame) : 0.141
Stream size : 1.69 GiB (68%)
Writing library : x264 core 157 r2969 d4099dd
Encoding settings : cabac=1 / ref=5 / deblock=1:-3:-3 / analyse=0x3:0x113 / me=umh / subme=8 / psy=1 / psy_rd=1.00:0.00 / mixed_ref=1 / me_range=16 / chroma_me=1 / trellis=2 / 8x8dct=1 / cqm=0 / deadzone=21,11 / fast_pskip=1 / chroma_qp_offset=-2 / threads=12 / lookahead_threads=2 / sliced_threads=0 / nr=0 / decimate=1 / interlaced=0 / bluray_compat=0 / constrained_intra=0 / bframes=3 / b_pyramid=2 / b_adapt=1 / b_bias=0 / direct=3 / weightb=1 / open_gop=0 / weightp=2 / keyint=250 / keyint_min=23 / scenecut=40 / intra_refresh=0 / rc_lookahead=50 / rc=crf / mbtree=1 / crf=18.0 / qcomp=0.60 / qpmin=0 / qpmax=69 / qpstep=4 / ip_ratio=1.40 / aq=3:0.80
Language : English
Default : Yes
Forced : No

Audio #1
ID : 2
Format : AC-3
Format/Info : Audio Coding 3
Commercial name : Dolby Digital
Codec ID : A_AC3
Duration : 1 h 42 min
Bit rate mode : Constant
Bit rate : 448 kb/s
Channel(s) : 6 channels
Channel layout : L R C LFE Ls Rs
Sampling rate : 48.0 kHz
Frame rate : 31.250 FPS (1536 SPF)
Bit depth : 16 bits
Compression mode : Lossy
Stream size : 329 MiB (13%)
Title : DUB | Пифагор
Language : Russian
Service kind : Complete Main
Default : Yes
Forced : No

Audio #2
ID : 3
Format : E-AC-3
Format/Info : Enhanced AC-3
Commercial name : Dolby Digital Plus
Codec ID : A_EAC3
Duration : 1 h 42 min
Bit rate mode : Constant
Bit rate : 640 kb/s
Channel(s) : 6 channels
Channel layout : L R C LFE Ls Rs
Sampling rate : 48.0 kHz
Frame rate : 31.250 FPS (1536 SPF)
Compression mode : Lossy
Stream size : 470 MiB (19%)
Language : English
Service kind : Complete Main
Default : No
Forced : No

Text #1
ID : 4
Format : UTF-8
Codec ID : S_TEXT/UTF8
Codec ID/Info : UTF-8 Plain Text
Duration : 1 h 23 min
Bit rate : 2 b/s
Count of elements : 31
Stream size : 1.48 KiB (0%)
Title : Forced
Language : Russian
Default : Yes
Forced : No

Text #2
ID : 5
Format : UTF-8
Codec ID : S_TEXT/UTF8
Codec ID/Info : UTF-8 Plain Text
Duration : 1 h 40 min
Bit rate : 99 b/s
Count of elements : 1494
Stream size : 73.3 KiB (0%)
Title : Russian
Language : Russian
Default : No
Forced : No

Text #3
ID : 6
Format : UTF-8
Codec ID : S_TEXT/UTF8
Codec ID/Info : UTF-8 Plain Text
Duration : 47 min 49 s
Bit rate : 0 b/s
Count of elements : 11
Stream size : 195 Bytes (0%)
Title : English (Forced)
Language : English
Default : No
Forced : No

Text #4
ID : 7
Format : UTF-8
Codec ID : S_TEXT/UTF8
Codec ID/Info : UTF-8 Plain Text
Duration : 1 h 40 min
Bit rate : 83 b/s
Count of elements : 1846
Stream size : 61.8 KiB (0%)
Title : English
Language : English
Default : No
Forced : No

Text #5
ID : 8
Format : UTF-8
Codec ID : S_TEXT/UTF8
Codec ID/Info : UTF-8 Plain Text
Duration : 1 h 40 min
Bit rate : 58 b/s
Count of elements : 1530
Stream size : 43.0 KiB (0%)
Title : German
Language : German
Default : No
Forced : No

Text #6
ID : 9
Format : UTF-8
Codec ID : S_TEXT/UTF8
Codec ID/Info : UTF-8 Plain Text
Duration : 1 h 40 min
Bit rate : 55 b/s
Count of elements : 1471
Stream size : 41.0 KiB (0%)
Title : French
Language : French
Default : No
Forced : No

Text #7
ID : 10
Format : UTF-8
Codec ID : S_TEXT/UTF8
Codec ID/Info : UTF-8 Plain Text
Duration : 1 h 40 min
Bit rate : 57 b/s
Count of elements : 1476
Stream size : 42.6 KiB (0%)
Title : Italian
Language : Italian
Default : No
Forced : No

Text #8
ID : 11
Format : UTF-8
Codec ID : S_TEXT/UTF8
Codec ID/Info : UTF-8 Plain Text
Duration : 1 h 40 min
Bit rate : 53 b/s
Count of elements : 1493
Stream size : 39.3 KiB (0%)
Title : European Spanish
Language : Spanish
Default : No
Forced : No

pb.wtf



Скачать Дылда через торрент http://lostpix.com/thumbs/2019-09/12/jlnkyt4qi7n5ak2cbcw50ewh5.png Скачать фильм Дылда через торрент бесплантно в хорошем качестве Описание: Джоди, самая высокая девушка в школе, всегда чувствовала себя неловко в собственной шкуре. Но после многих лет насмешек и ... 10 10 2
Торрент: Зарегистрирован [2019-09-15 19:20] · скачан: 91 раз
Статус: √ проверено
Размер: 2.47 GB
Как cкачать? Как скачать Дылда через торрент | qTorrent

% Раздел Тема Автор DL S | L
Фильмы 2019-2020 [DVDrip, WEB-DLRip, HDrip] (DUB, MVO) [ 1.63 GB ] Дылда / Tall Girl [2019 WEB-DLRip-AVC] DUB [Пифагор] bober100 Скачать
2 | 0
Фильмы (WEB-DL 720p, 1080p) [ 3.95 GB ] Дылда / Tall Girl [2019 WEBRip 1080p] DUB [Пифагор] bober100 Скачать
2 | 0
Фильмы 2019-2020 [DVDrip, WEB-DLRip, HDrip] (DUB, MVO) [ 1.45 GB ] Дылда / Tall Girl [2019 WEBRip] DUB [Пифагор] bober100 Скачать
1 | 0

28-11-2019 20:33  

Отключить всю рекламу на сайте

20-09-2019 06:47 Дылда Скачать торрент  

На комедию вообще не похоже, скорее молодежная мелодрама! Ни разу не улыбнуло!pb.wtf



    Дорогой пользователь! Огромная просьба, поблагодарите релизера, оцените раздачу и оставьте свои комментарий, если Вы скачали Дылда через торрент бесплатно! Внесите свою лепту в развитие PiratBit!
    Комментировать посты могут только пользователи прошедшие не сложную регистрацию
    Показать сообщения:    

    Дылда через торрент
    Скачать бесплатно Дылда
    Дылда скачать торрент
    Дылда смотреть онлайн
    Cкачать фильм Дылда бесплатно
    Дылда скачать торрент в хорошем качестве
    Дылда смотреть онлайн бесплатно в хорошем качестве


    Вы не можете начинать темы
    Вы не можете отвечать на сообщения
    Вы не можете редактировать свои сообщения
    Вы не можете удалять свои сообщения
    Вы не можете голосовать в опросах
    Вы не можете прикреплять файлы к сообщениям
    Вы можете скачивать файлы