Всегда рабочее зеркало без VPN и Proxy просто перед .vidak.icu напиши любое слово или цифру, Пример http://cdxa.vidak.icu

MVO

Лицензия

1 сезон

1

1 сезон

iTunes

1 сезон

13

1 сезон

Deluxe

pack

Рекомендуем

Пиратка

30

ВАЖНО

RePack

MK11

RePack

jed

RePack

fifa19

RePack

RDR2

RePack

NEED FOR SPEED™ PAYBACK

Кинопоиск HD

6 сезон

 Острые козырьки 6 сезон

Все сериалы

все сериалы на PB.wtf

RePack

FAR CRY 5

Anonymous, нам критически не хватает 2100 руб. на оплату серверов и переферии за МАЙ, помоги нам пожалуйста, вся надежда только на тебя. В благодарность мы отключим тебе всю рекламу на сайте!

×
  
Magnet ссылка

Красивый бандит / A Clever Crook / Un beau voyou (Лукас Бернард) [2018, Комедия, WEB-DL 1080p] DUB [iTunes] pb.wtf

Красивый бандит через торрент pb.wtf

Размер: 4.11 GB | Добавлен: 2 года 9 мес. назад | Торрент скачан:137 раз
Смотреть онлайн Красивый бандит | Скачать    Ребята, помогите собрать деньги на оплату серверов!!!

15-09-2019 21:07 Красивый бандит Скачать торрент  

Красивый бандит / A Clever Crook / Un beau voyou
Год выпуска: 2018
Страна: Франция
Жанр: Комедия
Продолжительность: 01:44:23
Перевод: Дублированный | iTunes
Субтитры: отсутствуют

Режиссер: Лукас Бернард

rating

В ролях: Шарль Берлинг, Сванн Арло, Дженнифер Декер, Жан-Кентен Шатлен, Эрик Деор, Энн Лорье, Кристиан Бенедетти, Пьер Осседат, Марина Монкаде, Виктор Понтекорво

Описание: Накануне давно ожидаемого выхода на пенсию незадачливый комиссар полиции сталкивается с дерзким похищением картины. Элегантность совершенного преступления вынуждает его начать расследование.

Качество: WEB-DL 1080p
Формат: MKV

Видео: MPEG-4 AVC, 5641 Кбит/с, 1920x1012, 24 кадр/с
Аудио: 48 kHz, AC3 Dolby Digital, 3/2 (L,C,R,l,r) + LFE ch, ~384 kbps
скриншот  скриншот  скриншот  скриншот  скриншот  

General
Уникальный идентификатор : 248734191475908691873944797562860466216 (0xBB20767727543A00B60B1BE9B0D7F028)
Полное имя : D:\ФИЛЬМЫ\KRASIVYJ_BANDIT_2018_WEB-DL_1080p-BLUEBIRD.mkv
Формат : Matroska
Версия формата : Version 4 / Version 2
Размер файла : 4.11 GiB
Продолжительность : 1 h 44 min
Общий поток : 5 641 kb/s
Название фильма : KRASIVYJ_BANDIT_2018_WEB-DL_1080p-BLUEBIRD
Дата кодирования : UTC 2019-09-15 18:53:27
Программа кодирования : mkvmerge v6.9.1 ('Blue Panther') 32bit built on Apr 18 2014 18:15:44
Библиотека кодирования : libebml v1.3.0 + libmatroska v1.4.1
Обложка : Yes
Attachments : cover1.png

Video
Идентификатор : 1
Формат : AVC
Формат/Информация : Advanced Video Codec
Профиль формата : High@L4
Настройки формата : CABAC / 4 Ref Frames
Параметр CABAC формата : Yes
Параметр RefFrames формата : 4 frames
Идентификатор кодека : V_MPEG4/ISO/AVC
Продолжительность : 1 h 44 min
Битрейт : 5 144 kb/s
Ширина : 1 920 pixels
Высота : 1 012 pixels
Соотношение сторон : 1.897
Режим частоты кадров : Constant
Частота кадров : 24.000 FPS
Цветовое пространство : YUV
Субдискретизация насыщенности : 4:2:0
Битовая глубина : 8 bits
Тип развёртки : Progressive
Бит/(Пиксели*Кадры) : 0.110
Размер потока : 3.75 GiB (91%)
Заголовок : KRASIVYJ_BANDIT_2018_WEB-DL_1080p-BLUEBIRD
Язык : English
Default : Yes
Forced : No
Цветовой диапазон : Limited
Основные цвета : BT.709
Характеристики трансфера : BT.709
Коэффициенты матрицы : BT.709

Audio
Идентификатор : 2
Формат : AC-3
Формат/Информация : Audio Coding 3
Идентификатор кодека : A_AC3
Продолжительность : 1 h 44 min
Вид битрейта : Constant
Битрейт : 384 kb/s
Каналы : 6 channels
Расположение каналов : Front: L C R, Side: L R, LFE
Частота : 48.0 kHz
Частота кадров : 31.250 FPS (1536 SPF)
Битовая глубина : 16 bits
Метод сжатия : Lossy
Размер потока : 287 MiB (7%)
Заголовок : [DUB] DD 5.1 @ 384 kbps (iTunes)
Язык : Russian
ServiceKind/String : Complete Main
Default : Yes
Forced : No

Menu
00:00:00.000 : en:Глава 1
00:08:23.375 : en:Глава 2
00:16:23.250 : en:Глава 3
00:24:54.250 : en:Глава 4
00:32:55.625 : en:Глава 5
00:41:18.916 : en:Глава 6
00:49:44.624 : en:Глава 7
00:58:02.665 : en:Глава 8
01:06:04.248 : en:Глава 9
01:14:16.456 : en:Глава 10
01:22:35.039 : en:Глава 11
01:31:15.289 : en:Глава 12
01:37:33.039 : en:Глава 13

pb.wtf



Скачать Красивый бандит через торрент https://a.radikal.ru/a41/1909/81/aeeee962b6bb.png Скачать, смотреть онлайн Красивый бандит бесплантно в хорошем качестве Описание: Накануне давно ожидаемого выхода на пенсию незадачливый комиссар полиции сталкивается с дерзким похищением картины. Элегантность ... 10 10 7
Торрент: Зарегистрирован [2019-09-15 21:07] · скачан: 137 раз
Статус: √ проверено
Размер: 4.11 GB
Как cкачать? Как скачать Красивый бандит через торрент | UTorrent

% Раздел Тема Автор DL S | L
Фильмы 2018 [DVDrip, WEB-DLRip, HDrip] (DUB, MVO) [ 1.73 GB ] Красивый бандит / A Clever Crook / Un beau voyou [2018 WEB-DLRip-AVC] bober100 Скачать
1 | 0
Фильмы 2018 [DVDrip, WEB-DLRip, HDrip] (DUB, MVO) [ 1.46 GB ] Красивый бандит / A Clever Crook / Un beau voyou [2018 WEB-DLRip] bober100 Скачать
1 | 0

28-11-2019 20:33  

Отключить всю рекламу на сайте

20-09-2019 06:53 Красивый бандит Скачать торрент  

Заснул через 15 минут, попробовал еще раз глянуть и еще через 10 минут просмотра решил больше к этому фильму не возвращаться!pb.wtf



    Дорогой пользователь! Огромная просьба, поблагодарите релизера, оцените раздачу и оставьте свои комментарий, если Вы скачали Красивый бандит через торрент бесплатно!
    Комментировать посты могут только пользователи прошедшие не сложную регистрацию
    Показать сообщения:    

    Красивый бандит через торрент
    Скачать бесплатно Красивый бандит
    Красивый бандит скачать торрент
    Красивый бандит смотреть онлайн
    Cкачать фильм Красивый бандит бесплатно
    Красивый бандит скачать торрент в хорошем качестве
    Красивый бандит смотреть онлайн бесплатно в хорошем качестве


    Вы не можете начинать темы
    Вы не можете отвечать на сообщения
    Вы не можете редактировать свои сообщения
    Вы не можете удалять свои сообщения
    Вы не можете голосовать в опросах
    Вы не можете прикреплять файлы к сообщениям
    Вы можете скачивать файлы