новый адрес
Ссылка на приватное зеркало всего за 1$. Внимание количество ограничено!!!

iTunes

1+1

iTunes

мы

WEB-DL

1

iTunes

Чернобыль

iTunes

Ральф против интернета

Лицензия

ПШазам

Лицензия

Оно 2

Лицензия

30
pack

Вам бонус

ВАЖНО

!!Акция!!

Alien_RageХит недели

RePack

Resident Evil 21

ИГРА 18+

pack

RePack

jed

!!Акция!!

Alien_Rage

RePack

fifa19

RePack

Assassins Creed: Odyssey

RePack

NEED FOR SPEED™ PAYBACK

3 сезон

9 сезон

Бесстыжие 9 сезон

Все сериалы

все сериалы на PB.wtf

RePack

FAR CRY 5
Ребята, катастрофически не хватает 1900р. для оплаты серверов за Октябрь (всвязи с блокировками трафик упал в 3 раза), 1-2р., выручайте.
  

Анна / Anna (Люк Бессон) [2019, Боевик, триллер, HDRip-AVC] MVO [HDRezka Studio] - ExKinoRay pb.wtf

Анна через торрент pb.wtf

Раздают: 28 [ 6 KB/s ] Качают: 2 [ 0 KB/s ]
Размер: 1.45 GB | Добавлен: 2 мес. 20 д. назад | Торрент скачан:482 раза
Скачать  

15-09-2019 21:51 Анна Скачать торрент  

Название: Анна
Оригинальное название: Anna
Год выпуска: 2019
Жанр: Боевик, триллер
Режиссер: Люк Бессон
В ролях: Саша Лусс, Хелен Миррен, Люк Эванс, Киллиан Мёрфи, Лера Абова, Александр Петров (II), Никита Павленко, Анна Криппа, Алексей Маслодудов, Эрик Годон, Иван Франек, Жан-Батист Пюэк, Хакан Кан, Элисон Вилер, Эндрю Ховард, Ян Оливер Шрёдер, Луиз Паркер, Лорен Ферраро, Мабу Куяте, Полин Хорау, Жан-Марк Монтальто

Описание: Действие фильма разворачивается в конце 1980-х годов. Анна (Саша Лусс) – молодая симпатичная девушка – оказывается на пороге самых значительных событий в своей жизни. Из-за своей поразительной красоты она кажется слабой и беззащитной, но под этой маской скрывается неуемная мощь одного из самых опасных наемных убийц в мире. Анна оказывается втянутой в цепочку криминальных событий, и все происходящее с ней грозит смертельной опасностью.

rating

Страна: Франция, США
Студия: Summit Entertainment, EuropaCorp, Canal+
Продолжительность: 01:58:59
Перевод: Профессиональный (многоголосый, закадровый) | HDRezka Studio

Формат: MKV
Качество: HDRip-AVC
Видео: MPEG-4 AVC, 720x300 (2.40:1), 23.976 fps, 1550 Kbps, 0.299 bit/pixel
Аудио : 48 kHz, AC3, 2.0, 192 Kbps| RUS |
Субтитры: Английские (форс. на русскую речь (хардсаб), full)
General
Unique ID : 198487515387637074624113715852893404089 (0x95534E11052A24498CEF2D12AC0ABBB9)
Complete name : F:\Anna.2019.MVO.HDRip.AVC.ExKinoRay.mkv
Format : Matroska
Format version : Version 2
File size : 1.45 GiB
Duration : 1 h 58 min
Overall bit rate : 1 741 kb/s
Movie name : Anna 2019 from ExKinoRay
Encoded date : UTC 2019-09-15 21:14:31
Writing application : mkvmerge v5.6.0 ('Kenya Kane') built on May 27 2012 16:44:04
Writing library : libebml v1.2.3 + libmatroska v1.3.0

Video
ID : 1
Format : AVC
Format/Info : Advanced Video Codec
Format profile : High@L4.1
Format settings, CABAC : Yes
Format settings, ReFrames : 11 frames
Codec ID : V_MPEG4/ISO/AVC
Duration : 1 h 58 min
Bit rate : 1 550 kb/s
Width : 720 pixels
Height : 300 pixels
Display aspect ratio : 2.40:1
Frame rate mode : Constant
Frame rate : 23.976 (24000/1001) FPS
Original frame rate : 23.976 (23976/1000) FPS
Color space : YUV
Chroma subsampling : 4:2:0
Bit depth : 8 bits
Scan type : Progressive
Bits/(Pixel*Frame) : 0.299
Stream size : 1.26 GiB (87%)
Title : Enigma
Writing library : x264 core 152 r2851 ba24899
Encoding settings : cabac=1 / ref=11 / deblock=1:-2:-2 / analyse=0x3:0x113 / me=umh / subme=10 / psy=1 / psy_rd=1.03:0.10 / mixed_ref=1 / me_range=32 / chroma_me=1 / trellis=2 / 8x8dct=1 / cqm=0 / deadzone=21,11 / fast_pskip=0 / chroma_qp_offset=-3 / threads=9 / lookahead_threads=2 / sliced_threads=0 / nr=0 / decimate=0 / interlaced=0 / bluray_compat=0 / constrained_intra=0 / bframes=12 / b_pyramid=2 / b_adapt=2 / b_bias=0 / direct=3 / weightb=1 / open_gop=0 / weightp=2 / keyint=240 / keyint_min=23 / scenecut=40 / intra_refresh=0 / rc=2pass / mbtree=0 / bitrate=1550 / ratetol=1.0 / qcomp=0.60 / qpmin=0 / qpmax=51 / qpstep=4 / cplxblur=20.0 / qblur=0.5 / ip_ratio=1.40 / pb_ratio=1.30 / aq=2:0.80
Default : Yes
Forced : No
Color range : Limited
Color primaries : BT.709
Transfer characteristics : BT.709
Matrix coefficients : BT.709

Audio
ID : 2
Format : AC-3
Format/Info : Audio Coding 3
Mode extension : CM (complete main)
Format settings, Endianness : Big
Codec ID : A_AC3
Duration : 1 h 58 min
Bit rate mode : Constant
Bit rate : 192 kb/s
Channel(s) : 2 channels
Channel positions : Front: L R
Sampling rate : 48.0 kHz
Frame rate : 31.250 FPS (1536 spf)
Compression mode : Lossy
Stream size : 163 MiB (11%)
Title : MVO
Language : Russian
Default : Yes
Forced : No

Text
ID : 3
Format : UTF-8
Codec ID : S_TEXT/UTF8
Codec ID/Info : UTF-8 Plain Text
Language : English
Default : No
Forced : No

Menu
00:00:00.000 : en:Chapter 01
00:06:14.291 : en:Chapter 02
00:16:42.210 : en:Chapter 03
00:21:09.185 : en:Chapter 04
00:31:16.708 : en:Chapter 05
00:35:25.832 : en:Chapter 06
00:45:57.338 : en:Chapter 07
00:53:43.262 : en:Chapter 08
01:00:52.732 : en:Chapter 09
01:08:39.907 : en:Chapter 10
01:14:24.085 : en:Chapter 11
01:24:15.133 : en:Chapter 12
01:28:36.520 : en:Chapter 13
01:36:36.582 : en:Chapter 14
01:46:36.390 : en:Chapter 15
01:51:04.783 : en:Chapter 16


Релиз от:

Автор релиза: pb.wtf



Скачать Анна через торрент https://c.radikal.ru/c23/1909/d4/654b1757702e.png Скачать фильм Анна через торрент бесплантно в хорошем качестве Описание: Действие фильма разворачивается в конце 1980-х годов. Анна (Саша Лусс) – молодая симпатичная девушка – оказывается на пороге ... 10 10 7
Info! Золотая раздача, скачанное не засчитывается.
Торрент: Зарегистрирован [2019-09-15 21:51] · скачан: 482 раз
Статус: T временная
Размер: 1.45 GB
Как cкачать? Как скачать Анна через торрент | qTorrent

% Раздел Тема Автор DL S | L
Фильмы [HD 720p, 1080p] (Хороший звук DUB, MVO) [ 4.93 GB ] Проклятие Аннабель 3 / Annabelle Comes Home [2019 BDRip 720p] DUB [] MVO [HDRezka Studio] - ExKinoRay Enigma2010 Скачать
54 | 5
Фильмы 2019 [DVDrip, WEB-DLRip, HDrip] (DUB, MVO) [ 2.2 GB ] Проклятие Аннабель 3 / Annabelle Comes Home [2019 BDRip-AVC] DUB [] MVO - ExKinoRay Enigma2010 Скачать
43 | 4
Фильмы 2019 [DVDrip, WEB-DLRip, HDrip] (DUB, MVO) [ 1.61 GB ] Анна / Anna [2019 HDRip-AVC] Dub - ExKinoRay Enigma2010 Скачать
14 | 0
Фильмы 2019 [DVDrip, WEB-DLRip, HDrip] (DUB, MVO) [ 2.06 GB ] Проклятие Аннабель 3 / Annabelle Comes Home [2019 WEB-DLRip-AVC] MVO - ExKinoRay Enigma2010 Скачать
26 | 1
T Фильмы 2019 [DVDrip, WEB-DLRip, HDrip] (DUB, MVO) [ 1.44 GB ] Анна / Anna [2019 WEB-DLRip-AVC] MVO [HDRezka Studio] - ExKinoRay Enigma2010 Скачать
11 | 4
Фильмы 2018 [DVDrip, WEB-DLRip, HDrip] (DUB, MVO) [ 1.4 GB ] Анон / Anon [2018 WEB-DLRip Локализованная версия] - ExKinoRay Enigma2010 Скачать
5 | 0
Фильмы 2017 [DVDrip, WEB-DLRip, HDrip] (DUB, MVO) [ 1.81 GB ] Проклятие Аннабель: Зарождение зла / Annabelle: Creation [2017 BDRip-AVC] [] - ExKinoRay Enigma2010 Скачать
1 | 0

28-11-2019 20:33  

Отключить всю рекламу на сайте

16-09-2019 18:53 Анна Скачать торрент  

Какой нетолерантный фильм... Где же негр-председатель КГБ? Или, на худой конец, негр-милиционер... Ай-яй-яй, товарищ Бессон!
Да и вообще: была уже Никита. И кинцо и сериал. Сначала - про Европу, потом про Пиндосию. Теперь - про великую и коварную русскую нацию. Ждём продолжений. В виде: "Гюльчатай", "Мумбо-юмбо", "Сянь Пунь" и пр.pb.wtf



18-09-2019 17:34 Анна Скачать торрент  


Надо взглянуть на это безобразие.pb.wtf



24-09-2019 08:07 Анна Скачать торрент  

Какая бездарная клюква!
В 80х годах московская девушка через интернет записывается на службу во флот.
От Бессона вообще не ожидал. Лучше бы снял как на Уолл-стрит негров линчуют индейцыpb.wtf



    Дорогой пользователь! Огромная просьба, поблагодарите релизера, оцените раздачу и оставьте свои комментарий, если Вы скачали Анна через торрент бесплатно! Внесите свою лепту в развитие PiratBit!
    Комментировать посты могут только пользователи прошедшие не сложную регистрацию
    Показать сообщения:    

    Анна через торрент
    Скачать бесплатно Анна
    Анна скачать торрент
    Анна смотреть онлайн
    Cкачать фильм Анна бесплатно
    Анна скачать торрент в хорошем качестве
    Анна смотреть онлайн бесплатно в хорошем качестве


    Вы не можете начинать темы
    Вы не можете отвечать на сообщения
    Вы не можете редактировать свои сообщения
    Вы не можете удалять свои сообщения
    Вы не можете голосовать в опросах
    Вы не можете прикреплять файлы к сообщениям
    Вы можете скачивать файлы