новый адрес
Ссылка на приватное зеркало всего за 1$. Внимание количество ограничено!!!

iTunes

1+1

iTunes

мы

WEB-DL

1

iTunes

Чернобыль

iTunes

Ральф против интернета

Лицензия

ПШазам

Лицензия

Оно 2

Лицензия

30
pack

Вам бонус

ВАЖНО

!!Акция!!

Alien_RageХит недели

RePack

Resident Evil 21

ИГРА 18+

pack

RePack

jed

!!Акция!!

Alien_Rage

RePack

fifa19

RePack

Assassins Creed: Odyssey

RePack

NEED FOR SPEED™ PAYBACK

3 сезон

9 сезон

Бесстыжие 9 сезон

Все сериалы

все сериалы на PB.wtf

RePack

FAR CRY 5
Ребята, катастрофически не хватает 1900р. для оплаты серверов за Октябрь (всвязи с блокировками трафик упал в 3 раза), 1-2р., выручайте.
  

Детские игры / Child's Play (Ларс Клевберг) [2019, Ужасы, BDRip-AVC] DUB [iTunes] pb.wtf

Детские игры через торрент pb.wtf

Раздают: 3 [ 0 KB/s ]
Размер: 1.7 GB | Добавлен: 2 мес. 21 д. назад | Торрент скачан:97 раз
Скачать  

16-09-2019 02:21 Детские игры Скачать торрент  

Детские игры / Child's Play«Твой лучший друг... до самой смерти»
Год выпуска: 2019
Страна: Франция, Канада, США
Жанр: Ужасы
Продолжительность: 01:30:00
Перевод: Дублированный | iTunes
Субтитры: Русские (форс.), английские (форс.. полные, SDH)

Режиссер: Ларс Клевберг

rating

В ролях: Гэбриел Бейтман, Обри Плаза, Марк Хэмилл, Брайан Тайри Генри, Тим Мэтисон, Дэвид Льюис, Ти Консильо, Марлон Казади, Беатрис Китсос, Ханна Дрю, Трент Редекоп, Эмбер Тейлор, Карлис Бёрк, Николь Энтони, Джонсон Фэн, Кристин Йорк, Миа Белла, Амро Майзуб, Вину Сандху, Оливия Пун, Кеннет Тайнен

Описание: Мать-одиночка Карен дарит своему сыну Энди куклу, о которой мечтают все дети. Однако, вскоре становится ясно, что Энди достается больше, чем просто игрушка…

Качество: BDRip-AVC
Формат: MKV

Видео: 1024x432 (2.40:1), 23,976 fps, x264 ~1 869 kbps avg, 0.176 bit/pixel
Аудио#1: 48 kHz, AC3 Dolby Digital, 3/2 (L,C,R,l,r) + LFE ch, ~384.00 kbps avg | RUS (iTunes)
Аудио#2: 48 kHz, AC3 Dolby Digital, 3/2 (L,C,R,l,r) + LFE ch, ~448.00 kbps avg | ENG
скриншот  скриншот  скриншот  скриншот  скриншот  

Общее
Уникальный идентификатор : 244790272582558216217986155054939899082 (0xB828E4404CE71F00091A917547EA04CA)
Полное имя : F:OlLanDGroupChilds.Play.2019.BDRip(AVC).OlLanDGroup.mkv
Формат : Matroska
Версия формата : Version 4 / Version 2
Размер файла : 1,70 Гбайт
Продолжительность : 1 ч. 30 м.
Общий поток : 2700 Кбит/сек
Название фильма : Child's Play (2019) #TorpedoUK#
Дата кодирования : UTC 2019-09-16 01:51:09
Программа кодирования : mkvmerge v29.0.0 ('Like It Or Not') 64-bit
Библиотека кодирования : libebml v1.3.6 + libmatroska v1.4.9

Видео
Идентификатор : 1
Формат : AVC
Формат/Информация : Advanced Video Codec
Профиль формата : High@L4.1
Параметр CABAC формата : Да
Параметр ReFrames формата : 10 кадров
Идентификатор кодека : V_MPEG4/ISO/AVC
Продолжительность : 1 ч. 30 м.
Битрейт : 1869 Кбит/сек
Ширина : 1024 пикселя
Высота : 432 пикселя
Соотношение сторон : 2,40:1
Режим частоты кадров : Постоянный
Частота кадров : 23,976 (24000/1001) кадра/сек
Цветовое пространство : YUV
Субдискретизация насыщенности : 4:2:0
Битовая глубина : 8 бит
Тип развёртки : Прогрессивная
Бит/(Пиксели*Кадры) : 0.176
Размер потока : 1,17 Гбайт (69%)
Библиотека кодирования : x264 core 146 r2538 121396c
Настройки программы : cabac=1 / ref=10 / deblock=1:-3:-3 / analyse=0x3:0x113 / me=umh / subme=11 / psy=1 / psy_rd=0.98:0.04 / mixed_ref=1 / me_range=48 / chroma_me=1 / trellis=2 / 8x8dct=1 / cqm=0 / deadzone=21,11 / fast_pskip=1 / chroma_qp_offset=-6 / threads=6 / lookahead_threads=1 / sliced_threads=0 / nr=0 / decimate=1 / interlaced=0 / bluray_compat=0 / constrained_intra=0 / bframes=11 / b_pyramid=2 / b_adapt=2 / b_bias=0 / direct=3 / weightb=1 / open_gop=0 / weightp=2 / keyint=240 / keyint_min=23 / scenecut=40 / intra_refresh=0 / rc_lookahead=40 / rc=2pass / mbtree=0 / bitrate=1869 / ratetol=1.0 / qcomp=0.60 / qpmin=0 / qpmax=69 / qpstep=4 / cplxblur=20.0 / qblur=0.5 / vbv_maxrate=50000 / vbv_bufsize=62500 / nal_hrd=none / filler=0 / ip_ratio=1.40 / pb_ratio=1.30 / aq=1:1.00
Язык : English
Default : Да
Forced : Нет

Аудио #1
Идентификатор : 2
Формат : AC-3
Формат/Информация : Audio Coding 3
Расширение режима : CM (complete main)
Параметр Endianness формата : Big
Идентификатор кодека : A_AC3
Продолжительность : 1 ч. 29 м.
Вид битрейта : Постоянный
Битрейт : 384 Кбит/сек
Каналы : 6 каналов
Расположение каналов : Front: L C R, Side: L R, LFE
Частота : 48,0 КГц
Частота кадров : 31,250 кадров/сек (1536 spf)
Битовая глубина : 16 бит
Метод сжатия : С потерями
Размер потока : 247 Мбайт (14%)
Заголовок : DUB [iTunes]
Язык : Russian
Default : Да
Forced : Нет

Аудио #2
Идентификатор : 3
Формат : AC-3
Формат/Информация : Audio Coding 3
Расширение режима : CM (complete main)
Параметр Endianness формата : Big
Идентификатор кодека : A_AC3
Продолжительность : 1 ч. 30 м.
Вид битрейта : Постоянный
Битрейт : 448 Кбит/сек
Каналы : 6 каналов
Расположение каналов : Front: L C R, Side: L R, LFE
Частота : 48,0 КГц
Частота кадров : 31,250 кадров/сек (1536 spf)
Битовая глубина : 16 бит
Метод сжатия : С потерями
Размер потока : 288 Мбайт (17%)
Заголовок : [Original]
Язык : English
Default : Нет
Forced : Нет

Текст #1
Идентификатор : 4
Формат : UTF-8
Идентификатор кодека : S_TEXT/UTF8
Идентификатор кодека/Информация : UTF-8 Plain Text
Продолжительность : 11 м. 41 с.
Битрейт : 5 бит/сек
Count of elements : 10
Размер потока : 452 байт (0%)
Заголовок : Forced
Язык : Russian
Default : Да
Forced : Нет

Текст #2
Идентификатор : 5
Формат : UTF-8
Идентификатор кодека : S_TEXT/UTF8
Идентификатор кодека/Информация : UTF-8 Plain Text
Продолжительность : 24 с. 66 мс.
Битрейт : 77 бит/сек
Count of elements : 8
Размер потока : 232 байт (0%)
Заголовок : Forced
Язык : English
Default : Нет
Forced : Нет

Текст #3
Идентификатор : 6
Формат : UTF-8
Идентификатор кодека : S_TEXT/UTF8
Идентификатор кодека/Информация : UTF-8 Plain Text
Продолжительность : 1 ч. 23 м.
Битрейт : 52 бит/сек
Count of elements : 1225
Размер потока : 32,0 Кбайт (0%)
Заголовок : Full
Язык : English
Default : Нет
Forced : Нет

Текст #4
Идентификатор : 7
Формат : UTF-8
Идентификатор кодека : S_TEXT/UTF8
Идентификатор кодека/Информация : UTF-8 Plain Text
Продолжительность : 1 ч. 29 м.
Битрейт : 62 бит/сек
Count of elements : 1551
Размер потока : 40,8 Кбайт (0%)
Заголовок : SDH
Язык : English
Default : Нет
Forced : Нет

Текст #5
Идентификатор : 8
Формат : UTF-8
Идентификатор кодека : S_TEXT/UTF8
Идентификатор кодека/Информация : UTF-8 Plain Text
Продолжительность : 1 ч. 29 м.
Битрейт : 93 бит/сек
Count of elements : 1544
Размер потока : 61,1 Кбайт (0%)
Заголовок : SDH-Colored
Язык : English
Default : Нет
Forced : Нет

Меню
00:00:00.000 : en:Chapter 01
00:05:12.353 : en:Chapter 02
00:09:48.296 : en:Chapter 03
00:15:13.203 : en:Chapter 04
00:21:13.063 : en:Chapter 05
00:27:49.793 : en:Chapter 06
00:34:33.446 : en:Chapter 07
00:40:52.658 : en:Chapter 08
00:46:00.591 : en:Chapter 09
00:50:02.874 : en:Chapter 10
00:56:43.817 : en:Chapter 11
01:00:45.016 : en:Chapter 12
01:06:41.247 : en:Chapter 13
01:12:45.277 : en:Chapter 14
01:16:46.476 : en:Chapter 15
01:23:51.693 : en:Chapter 16

pb.wtf



Скачать Детские игры через торрент https://b.radikal.ru/b21/1909/09/1d7a80ccb35d.png Скачать фильм Детские игры через торрент бесплантно в хорошем качестве Описание: Мать-одиночка Карен дарит своему сыну Энди куклу, о которой мечтают все дети. Однако, вскоре становится ясно, что Энди достается ... 10 10 2
Торрент: Зарегистрирован [2019-09-16 02:21] · скачан: 97 раз
Статус: √ проверено
Размер: 1.7 GB
Как cкачать? Как скачать Детские игры через торрент | qTorrent

28-11-2019 20:33  

Отключить всю рекламу на сайте

    Дорогой пользователь! Огромная просьба, поблагодарите релизера, оцените раздачу и оставьте свои комментарий, если Вы скачали Детские игры через торрент бесплатно! Внесите свою лепту в развитие PiratBit!
    Комментировать посты могут только пользователи прошедшие не сложную регистрацию
    Показать сообщения:    

    Детские игры через торрент
    Скачать бесплатно Детские игры
    Детские игры скачать торрент
    Детские игры смотреть онлайн
    Cкачать фильм Детские игры бесплатно
    Детские игры скачать торрент в хорошем качестве
    Детские игры смотреть онлайн бесплатно в хорошем качестве


    Вы не можете начинать темы
    Вы не можете отвечать на сообщения
    Вы не можете редактировать свои сообщения
    Вы не можете удалять свои сообщения
    Вы не можете голосовать в опросах
    Вы не можете прикреплять файлы к сообщениям
    Вы можете скачивать файлы