Ссылка на приватное зеркало нашего сайта всего за 1$. Внимание количество ограничено!!!

2 сезон

iTunes

1 сезон

1

2 сезон

2 сезон

iTunes

1 сезон

RePack

30

Ultimate

ВАЖНО

ИГРА 18+

pack

RePack

MK11
pack

Забери бонус

RePack

jed

!!Акция!!

Alien_Rage

RePack

fifa19

RePack

Assassins Creed: Odyssey

RePack

NEED FOR SPEED™ PAYBACK

4 сезон

9 сезон

Бесстыжие 9 сезон

Все сериалы

все сериалы на PB.wtf

RePack

FAR CRY 5
  

Tarja - In The Raw - 2019/ FLAC/ tracks +.cue/ lossless/ Symphonic Metal pb.wtf

Tarja - In The Raw - 2019 через торрент pb.wtf

Размер: 447 MB | Добавлен: 1 год 2 мес. назад | Торрент скачан:18 раз
Скачать  

16-09-2019 09:56 Tarja - In The Raw - 2019 Скачать торрент  


Tarja - In The Raw


Год издания: 2019
Страна: Finland
Жанр: Symphonic Metal
Продолжительность: 00:56:59
Лейбл издания: Ear Music
Страна-выпуска диска: Germany
Номер по каталогу: 0213831EMU
Формат: FLAC
Битрейт аудио: Lossless
Тип рипа: tracks +.cue
Наличие сканов в содержимом раздачи: да


01. Dead Promises (5:50)
02. Goodbye Stranger (5:11)
03. Tears in Rain (4:29)
04. Railroad (4:00)
05. You And I (4:07)
06. The Golden Chamber (7:04)
07. Spirits Of The Sea (6:56)
08. Silent Masquerade (7:20)
09. Serene (4:40)
10. Shadow Play (7:23)

Код:

Exact Audio Copy V1.3 from 2. September 2016

EAC extraction logfile from 5. September 2019, 22:25

Tarja / In The Raw

Used drive  : PLEXTOR PX-891SAF PLUS   Adapter: 1  ID: 0

Read mode               : Secure
Utilize accurate stream : Yes
Defeat audio cache      : Yes
Make use of C2 pointers : No

Read offset correction                      : 6
Overread into Lead-In and Lead-Out          : No
Fill up missing offset samples with silence : Yes
Delete leading and trailing silent blocks   : No
Null samples used in CRC calculations       : Yes
Used interface                              : Native Win32 interface for Win NT & 2000
Gap handling                                : Appended to previous track

Used output format              : User Defined Encoder
Selected bitrate                : 1024 kBit/s
Quality                         : High
Add ID3 tag                     : No
Command line compressor         : C:\Program Files (x86)\Exact Audio Copy\Flac\flac.exe
Additional command line options : -0 -V -T "ARTIST=%artist%" -T "TITLE=%title%" -T "ALBUM=%albumtitle%" -T "DATE=%year%" -T "TRACKNUMBER=%tracknr%" -T "TOTALTRACKS=%numtracks%" -T "GENRE=%genre%" -T "COMMENT=Naftamusic Release!" %source%

TOC of the extracted CD

     Track |   Start  |  Length  | Start sector | End sector
    ---------------------------------------------------------
        1  |  0:25.31 |  5:49.42 |      1906    |    28122
        2  |  6:14.73 |  5:10.69 |     28123    |    51441
        3  | 11:25.67 |  4:28.40 |     51442    |    71581
        4  | 15:54.32 |  3:59.45 |     71582    |    89551
        5  | 19:54.02 |  4:07.13 |     89552    |   108089
        6  | 24:01.15 |  7:03.71 |    108090    |   139885
        7  | 31:05.11 |  6:56.11 |    139886    |   171096
        8  | 38:01.22 |  7:20.17 |    171097    |   204113
        9  | 45:21.39 |  4:40.29 |    204114    |   225142
       10  | 50:01.68 |  7:22.47 |    225143    |   258339

Track  1

     Filename E:\Nafta Releases\Tarja - In The Raw (2019)[FLAC] - Naftamusic\01 - Dead Promises.wav

     Pre-gap length  0:00:27.31

     Peak level 100.0 %
     Extraction speed 2.4 X
     Track quality 99.9 %
     Test CRC 74750710
     Copy CRC 74750710
     Track not present in AccurateRip database
     Copy OK

Track  2

     Filename E:\Nafta Releases\Tarja - In The Raw (2019)[FLAC] - Naftamusic\02 - Goodbye Stranger.wav

     Peak level 100.0 %
     Extraction speed 3.2 X
     Track quality 100.0 %
     Test CRC 9788905D
     Copy CRC 9788905D
     Track not present in AccurateRip database
     Copy OK

Track  3

     Filename E:\Nafta Releases\Tarja - In The Raw (2019)[FLAC] - Naftamusic\03 - Tears in Rain.wav

     Peak level 100.0 %
     Extraction speed 3.5 X
     Track quality 100.0 %
     Test CRC F9B7312B
     Copy CRC F9B7312B
     Track not present in AccurateRip database
     Copy OK

Track  4

     Filename E:\Nafta Releases\Tarja - In The Raw (2019)[FLAC] - Naftamusic\04 - Railroad.wav

     Peak level 99.2 %
     Extraction speed 3.6 X
     Track quality 100.0 %
     Test CRC 75DFFB41
     Copy CRC 75DFFB41
     Track not present in AccurateRip database
     Copy OK

Track  5

     Filename E:\Nafta Releases\Tarja - In The Raw (2019)[FLAC] - Naftamusic\05 - You And I.wav

     Peak level 97.9 %
     Extraction speed 3.9 X
     Track quality 100.0 %
     Test CRC D98E3F2D
     Copy CRC D98E3F2D
     Track not present in AccurateRip database
     Copy OK

Track  6

     Filename E:\Nafta Releases\Tarja - In The Raw (2019)[FLAC] - Naftamusic\06 - The Golden Chamber.wav

     Peak level 100.0 %
     Extraction speed 3.8 X
     Track quality 99.9 %
     Test CRC 670F69DB
     Copy CRC 670F69DB
     Track not present in AccurateRip database
     Copy OK

Track  7

     Filename E:\Nafta Releases\Tarja - In The Raw (2019)[FLAC] - Naftamusic\07 - Spirits Of The Sea.wav

     Peak level 100.0 %
     Extraction speed 4.7 X
     Track quality 100.0 %
     Test CRC F3AA79DD
     Copy CRC F3AA79DD
     Track not present in AccurateRip database
     Copy OK

Track  8

     Filename E:\Nafta Releases\Tarja - In The Raw (2019)[FLAC] - Naftamusic\08 - Silent Masquerade.wav

     Peak level 100.0 %
     Extraction speed 4.4 X
     Track quality 99.9 %
     Test CRC 0BC65306
     Copy CRC 0BC65306
     Track not present in AccurateRip database
     Copy OK

Track  9

     Filename E:\Nafta Releases\Tarja - In The Raw (2019)[FLAC] - Naftamusic\09 - Serene.wav

     Peak level 100.0 %
     Extraction speed 5.1 X
     Track quality 100.0 %
     Test CRC CC7340FA
     Copy CRC CC7340FA
     Track not present in AccurateRip database
     Copy OK

Track 10

     Filename E:\Nafta Releases\Tarja - In The Raw (2019)[FLAC] - Naftamusic\10 - Shadow Play.wav

     Peak level 99.5 %
     Extraction speed 5.6 X
     Track quality 100.0 %
     Test CRC 50ADD12F
     Copy CRC 50ADD12F
     Track not present in AccurateRip database
     Copy OK

None of the tracks are present in the AccurateRip database

No errors occurred

End of status report

Код:

REM GENRE "Symphonic Metal"
REM DATE 2019
REM DISCID 980D5B0A
REM COMMENT "ExactAudioCopy v1.3"
PERFORMER "Tarja"
TITLE "In The Raw"
REM COMPOSER ""
FILE "01 - Dead Promises.wav" WAVE
  TRACK 01 AUDIO
    TITLE "Dead Promises"
    PERFORMER "Tarja"
    REM COMPOSER ""
    PREGAP 00:25:31
    INDEX 01 00:00:00
FILE "02 - Goodbye Stranger.wav" WAVE
  TRACK 02 AUDIO
    TITLE "Goodbye Stranger"
    PERFORMER "Tarja"
    REM COMPOSER ""
    INDEX 01 00:00:00
FILE "03 - Tears in Rain.wav" WAVE
  TRACK 03 AUDIO
    TITLE "Tears in Rain"
    PERFORMER "Tarja"
    REM COMPOSER ""
    INDEX 01 00:00:00
FILE "04 - Railroad.wav" WAVE
  TRACK 04 AUDIO
    TITLE "Railroad"
    PERFORMER "Tarja"
    REM COMPOSER ""
    INDEX 01 00:00:00
FILE "05 - You And I.wav" WAVE
  TRACK 05 AUDIO
    TITLE "You And I"
    PERFORMER "Tarja"
    REM COMPOSER ""
    INDEX 01 00:00:00
FILE "06 - The Golden Chamber.wav" WAVE
  TRACK 06 AUDIO
    TITLE "The Golden Chamber"
    PERFORMER "Tarja"
    REM COMPOSER ""
    INDEX 01 00:00:00
FILE "07 - Spirits Of The Sea.wav" WAVE
  TRACK 07 AUDIO
    TITLE "Spirits Of The Sea"
    PERFORMER "Tarja"
    REM COMPOSER ""
    INDEX 01 00:00:00
FILE "08 - Silent Masquerade.wav" WAVE
  TRACK 08 AUDIO
    TITLE "Silent Masquerade"
    PERFORMER "Tarja"
    REM COMPOSER ""
    INDEX 01 00:00:00
FILE "09 - Serene.wav" WAVE
  TRACK 09 AUDIO
    TITLE "Serene"
    PERFORMER "Tarja"
    REM COMPOSER ""
    INDEX 01 00:00:00
FILE "10 - Shadow Play.wav" WAVE
  TRACK 10 AUDIO
    TITLE "Shadow Play"
    PERFORMER "Tarja"
    REM COMPOSER ""
    INDEX 01 00:00:00






pb.wtf



Скачать Tarja - In The Raw - 2019 через торрент http://i106.fastpic.ru/big/2019/0916/06/bb206ad56497f10429b153a80bd16506.png Скачать фильм Tarja - In The Raw - 2019через торрент бесплантно в хорошем качестве Трэклист Dead Promises (5:50) Goodbye Stranger (5:11) Tears in Rain (4:29) Railroad (4:00) You And I (4:07) The ... 10 10 4
Торрент: Зарегистрирован [2019-09-16 09:56] · скачан: 18 раз
Статус: √ проверено
Размер: 447 MB
Как cкачать? Как скачать Tarja - In The Raw - 2019 через торрент | qTorrent

28-11-2019 20:33  

Отключить всю рекламу на сайте

    Дорогой пользователь! Огромная просьба, поблагодарите релизера, оцените раздачу и оставьте свои комментарий, если Вы скачали Tarja - In The Raw - 2019 через торрент бесплатно! Внесите свою лепту в развитие PiratBit!
    Комментировать посты могут только пользователи прошедшие не сложную регистрацию
    Показать сообщения:    

    Tarja - In The Raw - 2019 через торрент
    Скачать бесплатно Tarja - In The Raw - 2019
    Tarja - In The Raw - 2019 скачать торрент
    Tarja - In The Raw - 2019 смотреть онлайн
    Cкачать фильм Tarja - In The Raw - 2019 бесплатно
    Tarja - In The Raw - 2019 скачать торрент в хорошем качестве
    Tarja - In The Raw - 2019 смотреть онлайн бесплатно в хорошем качестве


    Вы не можете начинать темы
    Вы не можете отвечать на сообщения
    Вы не можете редактировать свои сообщения
    Вы не можете удалять свои сообщения
    Вы не можете голосовать в опросах
    Вы не можете прикреплять файлы к сообщениям
    Вы можете скачивать файлы